img image001 image001 image001 image001 image001 image001 image001 image001 image001 image001 image001 image001 image001 image001 image001 image001

Planets Sun Sun Sun
Статистика раздачи
Автор: Снежана | Размер: 1.44 ГБ | Добавлен: 16 ноя 2018
Раздают: 379    Качают: 9
Скачать торрент
Скачать торрент
Описание торрента

СообщениеДобавлено: 16 ноя 2018 

[b]Поиск [Локализованная версия] / Searching[/b]
Перевод: Профессиональный (полное дублирование) [iTunes]

Субтитры: отсутствуют

Формат: WEB-DLRip-AVC, MKV, H.264, AC3

Страна: США, Россия

Режиссер: Аниш Чаганти

Жанр: триллер, драма, детектив

Продолжительность: 01:42:21

Год выпуска: 2018

В ролях: Джон Чо, Мишель Ла, Дебра Мессинг, Джозеф Ли, Сара Сон, Кристин Херольд, Рик Сарабиа, Эрика Киль и др.

Описание: В Сан-Хосе живёт Дэвид Ким со своей дочерью Марго. Его жена Памела за два года до этого умерла от лимфомы. Вечером в четверг Дэвид звонит Марго, чтобы узнать где та, и та сообщает ему, что она у подруги и они готовятся к экзамену. В итоге Дэвид ложится спать, не дожидаясь прихода Марго. Ночью Марго дважды звонит ему, но Дэвид не слышит. Утром в пятницу он пытается ей перезвонить, но она не берёт трубку. В назначенное время Марго не возвращается из школы. Дэвид тогда вспоминает, что она может быть на уроках фортепьяно, но позвонив туда узнаёт, что Марго бросила их за полгода до этого. Дальнейшие события показывают, что смерть Памелы в некотором роде отгородила дочь и отца друг от друга, и Дэвид, оказывается, мало что знает о личной жизни Марго. Сумев проникнуть в её компьютер и восстановив доступ к её приватным аккаунтам в соц-сетях Дэвид с удивлением узнаёт, что у Марго совершенно нет близких друзей, а люди из её контактов не могут толком припомнить, видели ли они её в школе...

________

Видео: 1152x648 (2,40:1), 23.976 fps, AVC MPEG-4 (H.264), ~1640 kbps, 0.092 bit/pixel
Аудио: 48 kHz, AC3 Dolby Digital, 3/2 (L,C,R,l,r) + LFE ch, ~384 kbps

Доп. информация: Реклама отсутствует.

Общее
Полное имя : D:\Poisk_2018_WEB-DLRip-AVC_iT_by_Dalemake.mkv
Формат : Matroska
Версия формата : Version 4 / Version 2
Размер файла : 1,44 Гбайт
Продолжительность : 1 ч. 42 м.
Общий поток : 2007 Кбит/сек
Название фильма : [Searching_2018_All Films_Rutracker.org_by Dalemake]
Дата кодирования : UTC 2018-11-11 12:44:59
Программа кодирования : mkvmerge v7.8.0 ('River Man') 32bit built on Apr 3 2015 12:11:22
Библиотека кодирования : libebml v1.3.1 + libmatroska v1.4.2
DURATION : 01:42:21.472000000
NUMBER_OF_FRAMES : 191921
NUMBER_OF_BYTES : 294790656
_STATISTICS_WRITING_APP : mkvmerge v7.8.0 ('River Man') 32bit built on Apr 3 2015 12:11:22
_STATISTICS_WRITING_DATE_UTC : 2018-11-11 12:44:59
_STATISTICS_TAGS : BPS DURATION NUMBER_OF_FRAMES NUMBER_OF_BYTES

Видео
Идентификатор : 1
Формат : AVC
Формат/Информация : Advanced Video Codec
Профиль формата :
Параметр CABAC формата : Да
Параметр ReFrames формата : 8 кадров
Идентификатор кодека : V_MPEG4/ISO/AVC
Продолжительность : 1 ч. 42 м.
Битрейт : 1640 Кбит/сек
Ширина : 1152 пикселя
Высота : 648 пикселей
Соотношение сторон : 16:9
Частота кадров : 23,976 кадра/сек
Цветовое пространство : YUV
Субдискретизация насыщенности : 4:2:0
Битовая глубина : 8 бит
Тип развёртки : Прогрессивная
Бит/(Пиксели*Кадры) : 0.092
Размер потока : 1,13 Гбайт (79%)
Заголовок : [Searching_2018_All Films_Rutracker.org_by Dalemake]
Библиотека кодирования : x264 core 157 r2935 545de2f
Настройки программы : cabac=1 / ref=8 / deblock=1:-2:-2 / analyse=0x3:0x133 / me=umh / subme=9 / psy=1 / psy_rd=1.00:0.00 / mixed_ref=1 / me_range=16 / chroma_me=1 / trellis=2 / 8x8dct=1 / cqm=0 / deadzone=21,11 / fast_pskip=1 / chroma_qp_offset=-4 / threads=6 / lookahead_threads=1 / sliced_threads=0 / nr=0 / decimate=0 / interlaced=0 / bluray_compat=0 / constrained_intra=0 / bframes=3 / b_pyramid=2 / b_adapt=2 / b_bias=0 / direct=3 / weightb=1 / open_gop=0 / weightp=2 / keyint=240 / keyint_min=23 / scenecut=40 / intra_refresh=0 / rc_lookahead=60 / rc=2pass / mbtree=1 / bitrate=1640 / ratetol=1.0 / qcomp=0.60 / qpmin=0 / qpmax=69 / qpstep=4 / cplxblur=20.0 / qblur=0.5 / vbv_maxrate=50000 / vbv_bufsize=62500 / nal_hrd=none / filler=0 / ip_ratio=1.40 / aq=1:1.00
Default : Да
Forced : Нет

Аудио
Идентификатор : 2
Формат : AC-3
Формат/Информация : Audio Coding 3
Расширение режима : CM (complete main)
Параметр Endianness формата : Big
Идентификатор кодека : A_AC3
Продолжительность : 1 ч. 42 м.
Вид битрейта : Постоянный
Битрейт : 384 Кбит/сек
Каналы : 6 каналов
Расположение каналов : Front: L C R, Side: L R, LFE
Частота : 48,0 КГц
Битовая глубина : 16 бит
Метод сжатия : С потерями
Размер потока : 281 Мбайт (19%)
Заголовок : Dub - iTunes Russia
Язык : Russian
Default : Да
Forced : Нет

Меню
00:00:00.000 : en:1
00:06:24.384 : en:2
00:12:40.635 : en:3
00:20:12.545 : en:4
00:23:11.849 : en:5
00:31:00.651 : en:6
00:35:48.647 : en:7
00:39:38.460 : en:8
00:47:26.845 : en:9
00:53:30.708 : en:10
00:59:15.928 : en:11
01:05:28.216 : en:12
01:13:06.257 : en:13
01:21:13.619 : en:14
01:26:06.203 : en:15
01:34:31.791 : en:16












   Похожие торренты   Торрент   Размер 
В этой теме нет новых непрочитанных сообщений. Поиск / Searching (Аниш Чаганти) [2018, триллер, драма, детектив, WEBDLRip] DUB

87 | 4

1.37 ГБ

В этой теме нет новых непрочитанных сообщений. Поиск / Searching (Аниш Чаганти) [2018, триллер, HDTVRip] DUB

144 | 4

1.37 ГБ

В этой теме нет новых непрочитанных сообщений. Охота на воров [Расширенная версия] / Den of Thieves [Unrated] (Кристиан Гьюдгэст) [2018, боевик, триллер, драма, криминал, детектив, BDRip] AVO

17 | 0

2.19 ГБ

В этой теме нет новых непрочитанных сообщений. Охота на воров [Расширенная версия] / Den of Thieves [Unrated] (Кристиан Гьюдгэст) [2018, боевик, триллер, драма, криминал, детектив, BDRip] AVO

34 | 0

1.46 ГБ

В этой теме нет новых непрочитанных сообщений. Охота на воров [Расширенная версия] / Den of Thieves [Unrated] (Кристиан Гьюдгэст) [2018, боевик, триллер, драма, криминал, детектив, BDRip-AVC] DUB

47 | 10

2.93 ГБ

В этой теме нет новых непрочитанных сообщений. Охота на воров [Расширенная версия] / Den of Thieves [Unrated] (Кристиан Гьюдгэст) [2018, боевик, триллер, драма, криминал, детектив, BDRip] DUB

51 | 7

1.46 ГБ

В этой теме нет новых непрочитанных сообщений. Пылающий / Beoning / Burning (Ли Чхан-дон) [2018, детектив, триллер, драма, WEB-DLRip-AVC] DUB

53 | 0

2.18 ГБ




Вы не можете начинать темы
Вы не можете отвечать на сообщения
Вы не можете редактировать свои сообщения
Вы не можете удалять свои сообщения
Вы не можете добавлять вложения

Перейти:  
 Вход
ppkBB3cker v.2 © 2008-2014 @ PPK
[ Time : 0.039s | 16 Queries | GZIP : Off ]

cron