img image001 image001 image001 image001 image001 image001 image001 image001 image001 image001 image001 image001 image001 image001 image001 image001

Planets Sun Sun Sun
Статистика раздачи
Автор: Снежана | Размер: 743.84 МБ | Добавлен: 23 окт 2018
Раздают: 58    Качают: 2
Скачать торрент
Скачать торрент
Описание торрента

СообщениеДобавлено: 23 окт 2018 

Информация о фильме
Название: Килиманджара
Год выхода: 2018
Жанр: Комедия, приключения
Режиссер: Катерина Телегина
В ролях: Павел Прилучный, Ирина Старшенбаум, Максим Виторган, Таир Иманов, Тимофей Трибунцев, Варвара Бородина, Мария Смольникова, Артем Сучков, Мурад Мамедов
О фильме:
У москвички Маруси в день свадьбы исчезает жених. Но девушка не собирается этого так оставлять. Она решительно настроена отыскать его, а для этого собирает команду друзей, с которыми отправляется в Баку, на родину своего суженого. Но никто из друзей и предположить не мог, что впереди их ждет множество приключений, которые отразятся на жизни каждого из них.

Страна: Россия
Студия: ПЦ «Среда», «Планета парни из Баку филмс»
Продолжительность: 01:12:45
Перевод: Не требуется
Субтитры: нет
Файл
Формат: avi
Качество: WEB-DLRip
Видео: XviD build 73, 720x304 (2.35:1), 25.000 fps, 1228 Kbps (0.224 bit/pixel)
Звук: 48.0 kHz, MP3, 2/0 ch, 192 kbps
General
Complete name : D:RazdachiKilimandzhara.2018.XviD.WEB-DLRip.745mb.GeneralFilm.avi
Format : AVI
Format/Info : Audio Video Interleave
File size : 744 MiB
Duration : 1 h 12 min
Overall bit rate : 1 430 kb/s
Writing application : VirtualDubMod 1.5.10.3 | www.virtualdub-fr.org || (build 2550/release)
Writing library : VirtualDubMod build 2550/release
Video
ID : 0
Format : MPEG-4 Visual
Format profile : Advanced Simple@L5
Format settings, BVOP : 1
Format settings, QPel : No
Format settings, GMC : No warppoints
Format settings, Matrix : Custom
Codec ID : XVID
Codec ID/Hint : XviD
Duration : 1 h 12 min
Bit rate : 1 228 kb/s
Width : 720 pixels
Height : 304 pixels
Display aspect ratio : 2.35:1
Frame rate : 25.000 FPS
Color space : YUV
Chroma subsampling : 4:2:0
Bit depth : 8 bits
Scan type : Progressive
Compression mode : Lossy
Bits/(Pixel*Frame) : 0.224
Stream size : 639 MiB (86%)
Writing library : XviD 73
Audio
ID : 1
Format : AC-3
Format/Info : Audio Coding 3
Format settings, Endianness : Big
Codec ID : 2000
Duration : 1 h 12 min
Bit rate mode : Constant
Bit rate : 192 kb/s
Channel(s) : 2 channels
Channel positions : Front: L R
Sampling rate : 48.0 kHz
Frame rate : 31.250 FPS (1536 SPF)
Bit depth : 16 bits
Compression mode : Lossy
Stream size : 99.9 MiB (13%)
Alignment : Split accross interleaves
Interleave, duration : 40 ms (1.00 video frame)
Interleave, preload duratio : 500 ms
Service kind : Complete Main

Релиз от:



   Похожие торренты   Торрент   Размер 
В этой теме нет новых непрочитанных сообщений. Килиманджара (2018) WEB-DLRip от GeneralFilm

197 | 2

1.09 ГБ

В этой теме нет новых непрочитанных сообщений. Килиманджара (2018) WEB-DLRip от Generalfilm | КПК

68 | 0

276.69 МБ

В этой теме нет новых непрочитанных сообщений. Килиманджара (2018) WEB-DLRip-AVC

0 | 0

651.31 МБ

В этой теме нет новых непрочитанных сообщений. Килиманджара (2018) WEB-DLRip

210 | 4

1.09 ГБ

В этой теме нет новых непрочитанных сообщений. Килиманджара (2018) WEB-DLRip-AVC от OlLanDGroup

737 | 13

1.04 ГБ

В этой теме нет новых непрочитанных сообщений. Килиманджара (2018) WEB-DL 1080p

535 | 10

2.7 ГБ

В этой теме нет новых непрочитанных сообщений. Олюшка (2018) WEB-DLRip от GeneralFilm

60 | 12

1.09 ГБ




Вы не можете начинать темы
Вы не можете отвечать на сообщения
Вы не можете редактировать свои сообщения
Вы не можете удалять свои сообщения
Вы не можете добавлять вложения

Перейти:  
 Вход
ppkBB3cker v.2 © 2008-2014 @ PPK
[ Time : 0.021s | 18 Queries | GZIP : Off ]

cron