img image001 image001 image001 image001 image001 image001 image001 image001 image001 image001 image001 image001 image001 image001 image001 image001

Planets Sun Sun Sun
Статистика раздачи
Автор: Снежана | Размер: 4.52 ГБ | Добавлен: 21 сен 2018
Раздают: 9    Качают: 7
Скачать торрент
Скачать торрент
Описание торрента

СообщениеДобавлено: 21 сен 2018 

У прошлого в долгу! (1-8 серии из 16)

Перевод: Не требуется, cубтитры: отсутствуют
Формат: WEBRip-AVC, MKV, H.264, AC3
Страна: Украина
Режиссер: Мирослав Малич
Жанр: мелодрама
Всего серий: 16
Продолжительность: 8 х ~ 00:44:00
Год выпуска: 2018

В ролях: Елена Шилова (II), Михаил Гаврилов (II), Илья Алексеев, Кирилл Дыцевич, Ольга Гришина, Дмитрий Сова, Ксения Николаева, Лариса Руснак, Наталья Кленина, Ирина Мельник, Тамара Морозова, Анастасия Цымбалару, Александр Кобзарь, Полина Носыхина, Оксана Жданова, Егор Козлов, Георгий Поволоцкий, Игорь Гнездилов, Ольга Сумская, Юрий Гребельник

Описание: Главная героиня фильма – 18-летняя Вероника, которая мечтает стать пеаицей. Вероника приезжает в столицу поступать в музыкальное училище. В родном городе остаётся её мать, лучшая подруга Лариса и влюблённый в нее ещё со школы Костя. В дороге девушка знакомится с Вадимом, и парень вскоре делает ей предложение. Только после свадьбы оказывается, что Вадим использовал её. Вероника уходит от него до того, как понимает, что беременна. Девушка возвращается в родной город и рожает девочку, но через два года опять едет в столицу, чтобы продолжить учёбу и оформить развод. Однако там Веронику ждет новое потрясение: она оказывается свидетельницей убийства, на месте которого застаёт местного авторитета Князя. Кроме того, у себя в кармане девушка находит плёнку с компрометирующими Князя фотографиями. Веронике остаётся только бежать, но с этого момента не только она сама, но и ее близкие находятся под прицелом бандитов.

Рейтинг и доп. информация:


Видео: 1024x576 (16:9), 25 fps, AVC MPEG-4 (x264), ~ 1600 kbps , 0.109 bit/pixel
Аудио: 48 kHz, АС3, 2/0 (L,R), ~192.00 kbps avg
Общее
Уникальный идентификатор : 190035242656300865874415300162145723437 (0x8EF774D8BB5E344BB120867471E3A42D)
Полное имя : C:\У прошлого в долгу!..(2018).WEB-DLRip.(AVC).Files-x\01.У прошлого в долгу!.(2018).WEB-DLRip.(AVC).by.Серый1779.Files-x.mkv
Формат : Matroska
Версия формата : Version 2
Размер файла : 558 Мбайт
Продолжительность : 43 м. 31 с.
Общий поток : 1793 Кбит/сек
Дата кодирования : UTC 2018-09-17 22:52:39
Программа кодирования : mkvmerge v7.8.0 ('River Man') 32bit built on Apr 3 2015 12:11:22
Библиотека кодирования : libebml v1.3.1 + libmatroska v1.4.2

Видео
Идентификатор : 1
Формат : AVC
Формат/Информация : Advanced Video Codec
Профиль формата :
Настройки формата : CABAC / 9 Ref Frames
Параметр CABAC формата : Да
Параметр RefFrames формата : 9 кадров
Идентификатор кодека : V_MPEG4/ISO/AVC
Продолжительность : 43 м. 31 с.
Битрейт : 1600 Кбит/сек
Ширина : 1024 пикселя
Высота : 576 пикселей
Соотношение сторон : 16:9
Режим частоты кадров : Постоянный
Частота кадров : 25,000 кадров/сек
Цветовое пространство : YUV
Субдискретизация насыщенности : 4:2:0
Битовая глубина : 8 бит
Тип развёртки : Прогрессивная
Бит/(Пиксели*Кадры) : 0.109
Размер потока : 487 Мбайт (87%)
Библиотека кодирования : x264 core 146 r2538 121396c
Настройки программы : cabac=1 / ref=9 / deblock=1:-2:-1 / analyse=0x3:0x133 / me=umh / subme=9 / psy=1 / psy_rd=1.00:0.15 / mixed_ref=1 / me_range=32 / chroma_me=1 / trellis=2 / 8x8dct=1 / cqm=0 / deadzone=21,11 / fast_pskip=0 / chroma_qp_offset=-3 / threads=18 / lookahead_threads=3 / sliced_threads=0 / nr=0 / decimate=1 / interlaced=0 / bluray_compat=0 / constrained_intra=0 / bframes=9 / b_pyramid=2 / b_adapt=2 / b_bias=0 / direct=1 / weightb=1 / open_gop=0 / weightp=2 / keyint=250 / keyint_min=25 / scenecut=40 / intra_refresh=0 / rc=2pass / mbtree=0 / bitrate=1600 / ratetol=1.0 / qcomp=0.60 / qpmin=0 / qpmax=69 / qpstep=4 / cplxblur=20.0 / qblur=0.5 / ip_ratio=1.40 / pb_ratio=1.30 / aq=2:1.00
Default : Да
Forced : Нет
Цветовой диапазон : Limited
Основные цвета : BT.709
Характеристики трансфера : BT.709
Коэффициенты матрицы : BT.709

Аудио
Идентификатор : 2
Формат : AC-3
Формат/Информация : Audio Coding 3
Коммерческое название : Dolby Digital
Идентификатор кодека : A_AC3
Продолжительность : 43 м. 31 с.
Вид битрейта : Постоянный
Битрейт : 192 Кбит/сек
Каналы : 2 канала
Channel layout : L R
Частота : 48,0 КГц
Частота кадров : 31,250 кадров/сек (1536 SPF)
Битовая глубина : 16 бит
Метод сжатия : С потерями
Размер потока : 59,8 Мбайт (11%)
ServiceKind/String : Complete Main
Default : Да
Forced : Нет








   Похожие торренты   Торрент   Размер 
В этой теме нет новых непрочитанных сообщений. У прошлого в долгу! (1-8 серии из 16) (Мирослав Малич) [2018, мелодрама, WEBRip]

27 | 6

4.69 ГБ

В этой теме нет новых непрочитанных сообщений. У прошлого в долгу! (1-16 серии из 16) (Мирослав Малич) [2018, мелодрама, WEBRip]

36 | 1

9.37 ГБ

В этой теме нет новых непрочитанных сообщений. У прошлого в долгу! (1-16 серии из 16) (Мирослав Малич) [2018, мелодрама, WEBRip-AVC]

20 | 0

9.12 ГБ

В этой теме нет новых непрочитанных сообщений. У прошлого в долгу! (1-12 серии из 16) (Мирослав Малич) [2018, мелодрама, WEBRip-AVC]

0 | 3

6.78 ГБ

В этой теме нет новых непрочитанных сообщений. У прошлого в долгу! (1-4 серии из 16) (Мирослав Малич) [2018, мелодрама, WEBRip-AVC]

14 | 8

2.23 ГБ

В этой теме нет новых непрочитанных сообщений. У прошлого в долгу! (1-12 серии из 16) (Мирослав Малич) [2018, мелодрама, WEBRip]

14 | 9

7.03 ГБ

В этой теме нет новых непрочитанных сообщений. У прошлого в долгу! (1-4 серии из 16) (Мирослав Малич) [2018, мелодрама, WEBRip]

65 | 19

2.34 ГБ




Вы не можете начинать темы
Вы не можете отвечать на сообщения
Вы не можете редактировать свои сообщения
Вы не можете удалять свои сообщения
Вы не можете добавлять вложения

Перейти:  
 Вход
ppkBB3cker v.2 © 2008-2014 @ PPK
[ Time : 0.037s | 16 Queries | GZIP : Off ]

cron