img image001 image001 image001 image001 image001 image001 image001 image001 image001 image001 image001 image001 image001 image001 image001 image001

Planets Sun Sun Sun
Статистика раздачи
Автор: Снежана | Размер: 3.15 ГБ | Добавлен: 19 сен 2018
Раздают: 14    Качают: 3
Скачать торрент
Скачать торрент
Описание торрента

СообщениеДобавлено: 19 сен 2018 

Акварели (1-4 серии из 16)

Перевод: Не требуется, cубтитры: отсутствуют
Формат: WEB-DL 720p, MKV, H.264, AC3
Страна: Россия, Беларусь, Украина
Режиссер: Алексей Карелин
Жанр: мелодрама
Всего серий: 16
Продолжительность: 4 х 00:51:00
Год выпуска: 2018

В ролях: Дарья Щербакова, Марина Могилевская, Илья Алексеев, Оксана Базилевич, Дмитрий Егоров (II), Игорь Денисов, Марта Голубева, Андрей Новик, Олег Алмазов, Зоя Антонова, Пётр Баранчеев, Александр Чевычелов, Олег Ткачёв, Валентина Гарцуева, Александр Павлов (IV), Лариса Маршалова, Анна Полупанова, Дмитрий Пустильник, Алиса Петрова

Описание: Ася (Дарья Щербакова) не помнит ничего из своего детства. Жизнь для нее началась в одиннадцать лет в маленькой бедной квартирке с мамой Ириной (Оксана Базилевич), которую она любит и с тех пор, жертвуя своим благополучием, спасает от проблем и дурных пристрастий. Но случайная встреча и роман с Димой (Илья Алексеев) невольно погружает девушку в жизнь другой семьи, Васильцовых, – богатой и влиятельной, хранящей мрачные тайны. Ася не догадывается, что главной тайной оказывается она сама. Когда-то Асю звали Настей, но череда трагических событий, происшедших в один день четырнадцать лет назад, круто поменяла ее судьбу...

Рейтинг и доп. информация:


Видео: 1280х720 (16:9), 25 fps, AVC MPEG-4 (x264), ~ 1931 kbps , 0.084 bit/pixel
Аудио: 44 kHz, AC3, 2/0 (L,R) ch, ~192.00 kbps avg
Внимание! Раздача ведётся путём добавления новых серий. При каждом добавлении создаётся новый торрент.
Чтобы начать докачку новой серии, пользователям необходимо сделать следующее:
1. Остановить скачивание.
2. Удалить старый торрент у себя из клиента (старые серии удалять не надо).
3. Скачать новый торрент и запустить его у себя в клиенте вместо старого, при этом указать клиенту путь в старую папку куда и должно происходить скачивание новых серий. Ваш клиент при этом должен произвести хеширование (проверку) старой папки и будет докачивать только те серии, которых у вас ещё нет. Старые серии при этом не удаляются, а продолжают раздаваться! Eсли вы уже удалили старые серии, то предотвратить повторную закачку старых серий можно, отжав галочку в соответствующих местах при запуске нового торрента.


Общее
Уникальный идентификатор : 321581236254831031518083307409199462383 (0xF1EE4B12252F0B4202E18AA12D35F7EF)
Полное имя : C:\Акварели.2018.WEB-DL (720p).by.Nicodem.Files-x\01.Акварели.2018.WEB-DL (720p).by.Nicodem.Files-x.mkv
Формат : Matroska
Версия формата : Version 4
Размер файла : 813 Мбайт
Продолжительность : 52 м. 30 с.
Общий поток : 2166 Кбит/сек
Программа кодирования : Lavf56.36.100
Библиотека кодирования : Lavf56.36.100

Видео
Идентификатор : 1
Формат : AVC
Формат/Информация : Advanced Video Codec
Профиль формата :
Настройки формата : CABAC / 4 Ref Frames
Параметр CABAC формата : Да
Параметр RefFrames формата : 4 кадра
Идентификатор кодека : V_MPEG4/ISO/AVC
Продолжительность : 52 м. 30 с.
Битрейт : 1931 Кбит/сек
Ширина : 1280 пикселей
Высота : 720 пикселей
Соотношение сторон : 16:9
Режим частоты кадров : Постоянный
Частота кадров : 25,000 кадров/сек
Цветовое пространство : YUV
Субдискретизация насыщенности : 4:2:0
Битовая глубина : 8 бит
Тип развёртки : Прогрессивная
Бит/(Пиксели*Кадры) : 0.084
Размер потока : 725 Мбайт (89%)
Default : Да
Forced : Нет

Аудио
Идентификатор : 2
Формат : AC-3
Формат/Информация : Audio Coding 3
Коммерческое название : Dolby Digital
Идентификатор кодека : A_AC3
Продолжительность : 52 м. 30 с.
Вид битрейта : Постоянный
Битрейт : 192 Кбит/сек
Каналы : 2 канала
Channel layout : L R
Частота : 44,1 КГц
Частота кадров : 28,711 кадров/сек (1536 SPF)
Битовая глубина : 16 бит
Метод сжатия : С потерями
Задержка видео : -160 мс.
Размер потока : 72,1 Мбайт (9%)
Язык : unknown
ServiceKind/String : Complete Main
Default : Да
Forced : Нет
















   Похожие торренты   Торрент   Размер 
В этой теме нет новых непрочитанных сообщений. Акварели (1-16 серии из 16) (Алексей Карелин) [2018, мелодрама, WEB-DL 720p]

24 | 8

12.57 ГБ

В этой теме нет новых непрочитанных сообщений. Акварели (1-12 серии из 16) (Алексей Карелин) [2018, мелодрама, WEB-DL 720p]

1 | 3

9.44 ГБ

В этой теме нет новых непрочитанных сообщений. Акварели (1-8 серии из 16) (Алексей Карелин) [2018, мелодрама, WEB-DL 720p]

1 | 3

6.29 ГБ

В этой теме нет новых непрочитанных сообщений. Акварели (1-6 серии из 16) (Алексей Карелин) [2018, мелодрама, WEB-DLRip]

6 | 2

3.72 ГБ

В этой теме нет новых непрочитанных сообщений. Акварели (1-14 серии из 16) (Алексей Карелин) [2018, мелодрама, WEB-DLRip]

1 | 5

8.66 ГБ

В этой теме нет новых непрочитанных сообщений. Акварели (1-4 серии из 16) (Алексей Карелин) [2018, мелодрама, WEB-DLRip]

26 | 10

2.48 ГБ

В этой теме нет новых непрочитанных сообщений. Акварели (1-16 серии из 16) (Алексей Карелин) [2018, мелодрама, WEB-DLRip-AVC]

30 | 8

10.43 ГБ




Вы не можете начинать темы
Вы не можете отвечать на сообщения
Вы не можете редактировать свои сообщения
Вы не можете удалять свои сообщения
Вы не можете добавлять вложения

Перейти:  
 Вход
ppkBB3cker v.2 © 2008-2014 @ PPK
[ Time : 0.026s | 16 Queries | GZIP : Off ]

cron