img image001 image001 image001 image001 image001 image001 image001 image001 image001 image001 image001 image001 image001 image001 image001 image001

Planets Sun Sun Sun
Статистика раздачи
Автор: Снежана | Размер: 8.58 ГБ | Добавлен: 17 сен 2018
Раздают: 10    Качают: 4
Скачать торрент
Скачать торрент
Описание торрента

СообщениеДобавлено: 17 сен 2018 

Морские дьяволы. Рубежи Родины (1-4 серии из 24)

Перевод: Не требуется, cубтитры: отсутствуют
Формат: WEBRip 1080p, MKV, H.264, AC3
Страна: Россия
Режиссер: Александр Картохин, Алексей Праздников, Максим Демченко, Дмитрий Сошников
Жанр: боевик, криминал, приключения
Всего серий: 24
Продолжительность: 4 x ~ 00:50:00
Год выпуска: 2018

В ролях: Олег Чернов, Дарья Юргенс, Иван Паршин, Антон Гуляев, Александра Большакова, Виталий Бисеров, Антон Багров, Марина Доможирова, Снежана Прудько, Кристина Оленникова, Руслан Ягудин, Александр Удальцов, Антон Чернов, Юлия Кудояр, Михаил Куряев, Владимир Потапов, Юлия Полынская, Роман Притула, Евгений Щербаков (III)

Описание: Из северных приграничных регионов отряд «НЕРПЫ» перебрасывается на секретную военную базу, местоположение которой строго засекречено, и каждое задание «НЕРП» – это боевой вылет (выезд) к месту проведения операции в разных уголках нашей страны. «Нерпами» по-прежнему командуют Бизон, Батя и Багира. В составе отряда: Кот, Сармат, Дана, Агата и Опер. Новые сюжеты развиваются в современных реалиях, в контексте, близком к сегодняшней геополитической ситуации, на фоне основных международных конфликтов, в том числе в информационной среде. В данном сезоне герои попадают в ещё более реалистичные и экстремальные ситуации. В основе каждого нового фильма по-прежнему остается остросюжетная детективная история.

Рейтинг и доп. информация:


Видео: 1920х1080, (16:9), 25 fps, AVC MPEG-TS (x264), ~ 6000 kbps avg, 0.116 bit/pixel
Аудио: 48 kHz, AC3 , 2/0 (L,R) ch, ~192.00 kbps avg
Внимание! Раздача ведётся путём добавления новых серий. При каждом добавлении создаётся новый торрент.
Чтобы начать докачку новой серии, пользователям необходимо сделать следующее:
1. Остановить скачивание.
2. Удалить старый торрент у себя из клиента (старые серии удалять не надо).
3. Скачать новый торрент и запустить его у себя в клиенте вместо старого, при этом указать клиенту путь в старую папку куда и должно происходить скачивание новых серий. Ваш клиент при этом должен произвести хеширование (проверку) старой папки и будет докачивать только те серии, которых у вас ещё нет. Старые серии при этом не удаляются, а продолжают раздаваться! Eсли вы уже удалили старые серии, то предотвратить повторную закачку старых серий можно, отжав галочку в соответствующих местах при запуске нового торрента.


Общее
Уникальный идентификатор : 186778893916637718281956210461297519242 (0x8C844E754CD55CB9B2A3FDDF4AAAAA8A)
Полное имя : C:\Morskie.dyavoly.Rubezhi.Rodiny.2018.WEB-DL.(1080p).Nikolspup\Morskie.dyavoly.Rubezhi.Rodiny.(01.seriya).2018.WEB-DL.(1080p).Nikolspup.mkv
Формат : Matroska
Версия формата : Version 4
Размер файла : 2,16 Гбайт
Продолжительность : 50 м. 0 с.
Режим общего битрейта : Постоянный
Общий поток : 6172 Кбит/сек
Дата кодирования : UTC 2018-09-07 18:28:06
Программа кодирования : mkvmerge v7.8.0 ('River Man') 32bit built on Mar 27 2015 16:18:02
Библиотека кодирования : libebml v1.3.1 + libmatroska v1.4.2

Видео
Идентификатор : 1
Формат : AVC
Формат/Информация : Advanced Video Codec
Профиль формата :
Настройки формата : 2 Ref Frames
Параметр CABAC формата : Нет
Параметр RefFrames формата : 2 кадра
Идентификатор кодека : V_MPEG4/ISO/AVC
Продолжительность : 50 м. 0 с.
Вид битрейта : Постоянный
Битрейт : 6000 Кбит/сек
Ширина : 1920 пикселей
Высота : 1080 пикселей
Соотношение сторон : 16:9
Режим частоты кадров : Постоянный
Частота кадров : 25,000 кадров/сек
Стандарт вещания : PAL
Цветовое пространство : YUV
Субдискретизация насыщенности : 4:2:0
Битовая глубина : 8 бит
Тип развёртки : Прогрессивная
Бит/(Пиксели*Кадры) : 0.116
Размер потока : 2,05 Гбайт (95%)
Default : Да
Forced : Нет
Цветовой диапазон : Limited
Основные цвета : BT.709
Характеристики трансфера : BT.709
Коэффициенты матрицы : BT.709

Аудио
Идентификатор : 2
Формат : AC-3
Формат/Информация : Audio Coding 3
Коммерческое название : Dolby Digital
Идентификатор кодека : A_AC3
Продолжительность : 50 м. 0 с.
Вид битрейта : Постоянный
Битрейт : 192 Кбит/сек
Каналы : 2 канала
Channel layout : L R
Частота : 48,0 КГц
Частота кадров : 31,250 кадров/сек (1536 SPF)
Битовая глубина : 16 бит
Метод сжатия : С потерями
Размер потока : 68,7 Мбайт (3%)
Язык : Russian
ServiceKind/String : Complete Main
Default : Да
Forced : Нет








   Похожие торренты   Торрент   Размер 
В этой теме нет новых непрочитанных сообщений. Морские дьяволы. Рубежи Родины (1-8 серии из 24) (Александр Картохин, Алексей Праздников, Максим Демченко, Дмитрий Сошников) [2018, боевик, криминал, приключения, WEBRip 1080p]

2 | 1

17.09 ГБ

В этой теме нет новых непрочитанных сообщений. Морские дьяволы. Рубежи Родины (1-2 серии из 24) (Александр Картохин, Алексей Праздников, Максим Демченко, Дмитрий Сошников) [2018, боевик, криминал, приключения, WEBRip 1080p]

4 | 0

4.33 ГБ

В этой теме нет новых непрочитанных сообщений. Морские дьяволы. Рубежи Родины (1-10 серии из 24) (Александр Картохин, Алексей Праздников, Максим Демченко, Дмитрий Сошников) [2018, боевик, криминал, приключения, WEBRip 1080p]

12 | 1

21.47 ГБ

В этой теме нет новых непрочитанных сообщений. Морские дьяволы. Рубежи Родины (1-6 серии из 24) (Александр Картохин, Алексей Праздников, Максим Демченко, Дмитрий Сошников) [2018, боевик, криминал, приключения, WEBRip 1080p]

6 | 1

12.74 ГБ

В этой теме нет новых непрочитанных сообщений. Морские дьяволы. Рубежи Родины (1-8 серии из 24) (Александр Картохин, Алексей Праздников, Максим Демченко, Дмитрий Сошников) [2018, боевик, криминал, приключения, WEBRip-AVC]

0 | 0

6.07 ГБ

В этой теме нет новых непрочитанных сообщений. Морские дьяволы. Рубежи Родины (1-10 серии из 24) (Александр Картохин, Алексей Праздников, Максим Демченко, Дмитрий Сошников) [2018, боевик, криминал, приключения, WEBRip]

22 | 9

5.91 ГБ

В этой теме нет новых непрочитанных сообщений. Морские дьяволы. Рубежи Родины (1-6 серии из 24) (Александр Картохин, Алексей Праздников, Максим Демченко, Дмитрий Сошников) [2018, боевик, криминал, приключения, WEBRip]

7 | 5

3.51 ГБ




Вы не можете начинать темы
Вы не можете отвечать на сообщения
Вы не можете редактировать свои сообщения
Вы не можете удалять свои сообщения
Вы не можете добавлять вложения

Перейти:  
 Вход
ppkBB3cker v.2 © 2008-2014 @ PPK
[ Time : 0.664s | 17 Queries | GZIP : Off ]

cron