img image001 image001 image001 image001 image001 image001 image001 image001 image001 image001 image001 image001 image001 image001 image001 image001

Planets Sun Sun Sun
Статистика раздачи
Автор: Снежана | Размер: 2.19 ГБ | Добавлен: 16 июл 2018
Раздают: 77    Качают: 2
Скачать торрент
Скачать торрент
Описание торрента

СообщениеДобавлено: 16 июл 2018 

Профессионал (Сибирь) / Siberia
НА ЧТО ТЫ ГОТОВ РАДИ ЛЮБВИ?


Перевод: Любительский (одноголосый) BadBajo
Cубтитры: Английские (хардсаб на русскую речь, полные)
Формат: WEB-DLRip-AVC, MKV, H.264, AC3
Страна: США
Режиссер: Мэттью М. Росс
Жанр: Триллер, мелодрама, криминал
Продолжительность: 01:44:41
Год выпуска: 2018

В ролях: Киану Ривз, Молли Рингуолд, Ана Улару, Алекс Паунович, Вероника Феррес, Павел Личникофф, Эшли Ст. Джордж, Юджин Липински, Дмитрий Чеповецкий, Джеймс Александр

Описание: История американского торговца драгоценными камнями, который едет в Россию для встречи со своим партнером Петром и продажи голубых бриллиантов. Пётр с алмазами пропадает без вести, и герой отправляется вглубь Сибири на его поиски. Он и догадаться не мог, что его ждёт впереди.



Видео: 1024x424 (2.40:1), 23.976 fps, AVC MPEG-4 (x264), ~ 2 231 kbps avg, 0.214 bit/pixel

Аудио#1: Русский: 48 kHz/16 bits, AC3 Dolby Digital, 3/2 (L,C,R,l,r) + LFE ch, ~ 384 kbps avg [Любительский (одноголосый), BadBajo]
Аудио#2: Английский: 48 kHz/16 bits, AC3 Dolby Digital, 3/2 (L,C,R,l,r) + LFE ch, ~ 384 kbps avg [Оригинал]

Без какой-либо рекламы...






Общее
Уникальный идентификатор : 236265439903313694520654349112876058490 (0xB1BF118CB68D91CD9EF3AC9099F1C77A)
Полное имя : E:\Закачка-2\Siberia.2018.AVO.AVC.ExKinoRay.mkv
Формат : Matroska
Версия формата : Version 2
Размер файла : 2,19 Гбайт
Продолжительность : 1 ч. 44 м.
Общий поток : 2999 Кбит/сек
Название фильма : Siberia 2018 from ExKinoRay
Дата кодирования : UTC 2018-07-14 14:04:55
Программа кодирования : mkvmerge v5.6.0 ('Kenya Kane') built on May 27 2012 16:44:04
Библиотека кодирования : libebml v1.2.3 + libmatroska v1.3.0

Видео
Идентификатор : 1
Формат : AVC
Формат/Информация : Advanced Video Codec
Профиль формата :
Параметр CABAC формата : Да
Параметр ReFrames формата : 12 кадров
Идентификатор кодека : V_MPEG4/ISO/AVC
Продолжительность : 1 ч. 44 м.
Битрейт : 2231 Кбит/сек
Ширина : 1024 пикселя
Высота : 424 пикселя
Соотношение сторон : 2,40:1
Режим частоты кадров : Постоянный
Частота кадров : 23,976 (23976/1000) кадра/сек
Цветовое пространство : YUV
Субдискретизация насыщенности : 4:2:0
Битовая глубина : 8 бит
Тип развёртки : Прогрессивная
Бит/(Пиксели*Кадры) : 0.214
Размер потока : 1,59 Гбайт (72%)
Заголовок : Enigma
Библиотека кодирования : x264 core 152 r2851 ba24899
Настройки программы : cabac=1 / ref=12 / deblock=1:-2:-2 / analyse=0x3:0x113 / me=umh / subme=10 / psy=1 / psy_rd=1.02:0.05 / mixed_ref=1 / me_range=32 / chroma_me=1 / trellis=2 / 8x8dct=1 / cqm=0 / deadzone=21,11 / fast_pskip=0 / chroma_qp_offset=-3 / threads=12 / lookahead_threads=3 / sliced_threads=0 / nr=0 / decimate=0 / interlaced=0 / bluray_compat=0 / constrained_intra=0 / bframes=12 / b_pyramid=2 / b_adapt=2 / b_bias=0 / direct=3 / weightb=1 / open_gop=0 / weightp=2 / keyint=240 / keyint_min=23 / scenecut=40 / intra_refresh=0 / rc=2pass / mbtree=0 / bitrate=2231 / ratetol=1.0 / qcomp=0.65 / qpmin=0 / qpmax=51 / qpstep=4 / cplxblur=20.0 / qblur=0.5 / ip_ratio=1.30 / pb_ratio=1.20 / aq=3:0.90
Язык : English
Default : Да
Forced : Нет
Цветовой диапазон : Limited
Основные цвета : BT.709
Характеристики трансфера : BT.709
Коэффициенты матрицы : BT.709

Аудио #1
Идентификатор : 2
Формат : AC-3
Формат/Информация : Audio Coding 3
Расширение режима : CM (complete main)
Параметр Endianness формата : Big
Идентификатор кодека : A_AC3
Продолжительность : 1 ч. 44 м.
Вид битрейта : Постоянный
Битрейт : 384 Кбит/сек
Каналы : 6 каналов
Расположение каналов : Front: L C R, Side: L R, LFE
Частота : 48,0 КГц
Частота кадров : 31,250 кадров/сек (1536 spf)
Метод сжатия : С потерями
Размер потока : 288 Мбайт (13%)
Заголовок : AVO (BadBajo)
Язык : Russian
Default : Да
Forced : Нет

Аудио #2
Идентификатор : 3
Формат : AC-3
Формат/Информация : Audio Coding 3
Расширение режима : CM (complete main)
Параметр Endianness формата : Big
Идентификатор кодека : A_AC3
Продолжительность : 1 ч. 44 м.
Вид битрейта : Постоянный
Битрейт : 384 Кбит/сек
Каналы : 6 каналов
Расположение каналов : Front: L C R, Side: L R, LFE
Частота : 48,0 КГц
Частота кадров : 31,250 кадров/сек (1536 spf)
Метод сжатия : С потерями
Размер потока : 288 Мбайт (13%)
Язык : English
Default : Нет
Forced : Нет

Текст
Идентификатор : 4
Формат : UTF-8
Идентификатор кодека : S_TEXT/UTF8
Идентификатор кодека/Информация : UTF-8 Plain Text
Язык : English
Default : Нет
Forced : Нет

Меню
00:00:00.000 : en:1
00:09:24.000 : en:2
00:19:02.000 : en:3
00:30:37.000 : en:4
00:38:32.000 : en:5
00:49:46.000 : en:6
01:05:47.000 : en:7
01:18:50.000 : en:8
01:28:47.000 : en:9
01:39:35.000 : en:10






   Похожие торренты   Торрент   Размер 
В этой теме нет новых непрочитанных сообщений. Профессионал (Сибирь) / Siberia (Мэттью М. Росс) [2018, Триллер, мелодрама, криминал, WEB-DLRip] VO

342 | 14

1.48 ГБ

В этой теме нет новых непрочитанных сообщений. Профессионал / Сибирь / Siberia (Мэттью М. Росс) [2018, триллер, мелодрама, криминал, WEBDLRip-AVC] MVO

56 | 7

2.45 ГБ

В этой теме нет новых непрочитанных сообщений. Профессионал / Siberia (Мэттью М. Росс) [2018, триллер, мелодрама, криминал, HDRip] DUB

77 | 1

2.05 ГБ

В этой теме нет новых непрочитанных сообщений. Профессионал / Сибирь / Siberia (Мэттью М. Рос) [2018, триллер, мелодрама, криминал, WEBDLRip] MVO

21 | 4

1.45 ГБ

В этой теме нет новых непрочитанных сообщений. Профессионал / Сибирь / Siberia (2018) BDRip от ExKinoRay | iTunes

86 | 1

1.41 ГБ

В этой теме нет новых непрочитанных сообщений. 8 подруг Оушена / Ocean's Eight (Гэри Росс) [2018, боевик, триллер, комедия, криминал, WEB-DLRip] DUB

1361 | 17

1.46 ГБ

В этой теме нет новых непрочитанных сообщений. 8 подруг Оушена / Ocean's Eight (Гэри Росс) [2018, боевик, триллер, комедия, криминал, WEB-DLRip-AVC] DUB

44 | 2

1.49 ГБ




Вы не можете начинать темы
Вы не можете отвечать на сообщения
Вы не можете редактировать свои сообщения
Вы не можете удалять свои сообщения
Вы не можете добавлять вложения

Перейти:  
 Вход
ppkBB3cker v.2 © 2008-2014 @ PPK
[ Time : 0.030s | 15 Queries | GZIP : Off ]

cron