img image001 image001 image001 image001 image001 image001 image001 image001 image001 image001 image001 image001 image001 image001 image001 image001

Planets Sun Sun Sun
Статистика раздачи
Автор: Снежана | Размер: 12.5 ГБ | Добавлен: 21 мар 2018
Раздают: 33    Качают: 5
Скачать торрент
Скачать торрент
Описание торрента

СообщениеДобавлено: 21 мар 2018 

Осколки (1-16 серии из 16)

Перевод: Не требуется, cубтитры: отсутствуют
Формат: HDTVRip-AVC, MKV, H.264, AC3
Страна: Россия
Режиссер: Владимир Нахабцев (младший)
Жанр: мелодрама
Всего серий: 16
Продолжительность: 16 х ~ 00:52:00
Год выпуска: 2018

В ролях: Наталия Антонова, Александр Дьяченко, Татьяна Черкасова, Валерия Бурдужа, Анна Дулова, Аглая Тарасова, Дмитрий Пчела, Кира Кауфман, Валерий Кухарешин, Ольга Кирсанова-Миропольская, Алексей Одинг, Юлия Куварзина, Борис Хвошнянский, Наталья Высочанская, Валентина Иккерт, Михаил Вассербаум, Наталья Иохвидова, Роман Жилкин

Описание: В семье известного бизнесмена Олега Прокопьева скандал: младшая дочь Варвара не является родной ни ему, ни его жене Анне. Выясняется, что медсестра в роддоме перепутала детей, чьи фамилии отличались всего на одну букву: одновременно с Варварой Прокопьевой на свет появилась Александра Прокофьева. Спустя 15 лет правда открывается, и судьба сталкивает Олега с Марией, матерью Александры. Перед обеими семьями встает вопрос – как быть дальше? Героям придется пройти через множество испытаний, выбирая между долгом и тем, что велит сердце, сталкиваясь с трудностями и неожиданностями, переживая возвращение старых проблем и справляясь с некстати разгорающимися чувствами.

Рейтинг и доп. информация:


Видео: 1024x576 (16:9), 25 fps, AVC MPEG-4 (x264), ~ 2000 kbps , 0.136 bit/pixel
Аудио: 48 kHz, АС3, 2/0 (L,R), ~192.00 kbps avg
Общее
Уникальный идентификатор : 241085889176324562039331334994211652563 (0xB55F740C58AB7EF1961A26A6B72043D3)
Полное имя : C:\Oskolki.(2017).HDTVRip.(AVC).\01.Oskolki.(2017).HDTVRip.(AVC).mkv
Формат : Matroska
Версия формата : Version 2
Размер файла : 805 Мбайт
Продолжительность : 51 м. 19 с.
Общий поток : 2194 Кбит/сек
Дата кодирования : UTC 2018-03-13 04:29:53
Программа кодирования : mkvmerge v7.8.0 ('River Man') 32bit built on Apr 3 2015 12:11:22
Библиотека кодирования : libebml v1.3.1 + libmatroska v1.4.2

Видео
Идентификатор : 1
Формат : AVC
Формат/Информация : Advanced Video Codec
Профиль формата :
Настройки формата : CABAC / 9 Ref Frames
Параметр CABAC формата : Да
Параметр RefFrames формата : 9 кадров
Идентификатор кодека : V_MPEG4/ISO/AVC
Продолжительность : 51 м. 19 с.
Битрейт : 2000 Кбит/сек
Ширина : 1024 пикселя
Высота : 576 пикселей
Соотношение сторон : 16:9
Режим частоты кадров : Постоянный
Частота кадров : 25,000 кадров/сек
Цветовое пространство : YUV
Субдискретизация насыщенности : 4:2:0
Битовая глубина : 8 бит
Тип развёртки : Прогрессивная
Бит/(Пиксели*Кадры) : 0.136
Размер потока : 719 Мбайт (89%)
Библиотека кодирования : x264 core 146 r2538 121396c
Настройки программы : cabac=1 / ref=9 / deblock=1:-2:-1 / analyse=0x3:0x133 / me=umh / subme=9 / psy=1 / psy_rd=1.00:0.15 / mixed_ref=1 / me_range=32 / chroma_me=1 / trellis=2 / 8x8dct=1 / cqm=0 / deadzone=21,11 / fast_pskip=0 / chroma_qp_offset=-3 / threads=18 / lookahead_threads=3 / sliced_threads=0 / nr=0 / decimate=1 / interlaced=0 / bluray_compat=0 / constrained_intra=0 / bframes=9 / b_pyramid=2 / b_adapt=2 / b_bias=0 / direct=1 / weightb=1 / open_gop=0 / weightp=2 / keyint=250 / keyint_min=25 / scenecut=40 / intra_refresh=0 / rc=2pass / mbtree=0 / bitrate=2000 / ratetol=1.0 / qcomp=0.60 / qpmin=0 / qpmax=69 / qpstep=4 / cplxblur=20.0 / qblur=0.5 / ip_ratio=1.40 / pb_ratio=1.30 / aq=2:1.00
Default : Да
Forced : Нет
Цветовой диапазон : Limited
Основные цвета : BT.709
Характеристики трансфера : BT.709
Коэффициенты матрицы : BT.709

Аудио
Идентификатор : 2
Формат : AC-3
Формат/Информация : Audio Coding 3
Идентификатор кодека : A_AC3
Продолжительность : 51 м. 19 с.
Вид битрейта : Постоянный
Битрейт : 192 Кбит/сек
Каналы : 2 канала
Расположение каналов : Front: L R
Частота : 48,0 КГц
Частота кадров : 31,250 кадров/сек (1536 SPF)
Битовая глубина : 16 бит
Метод сжатия : С потерями
Размер потока : 70,5 Мбайт (9%)
ServiceKind/String : Complete Main
Default : Да
Forced : Нет








   Похожие торренты   Торрент   Размер 
В этой теме нет новых непрочитанных сообщений. Осколки (1-11 серии из 16) (Владимир Нахабцев (мл.)) [2018, мелодрама, HDTVRip-AVC]

54 | 26

8.6 ГБ

В этой теме нет новых непрочитанных сообщений. Осколки (1-16 серии из 16) (Владимир Нахабцев мл.) [2018, мелодрама, HDTVRip]

118 | 14

10.15 ГБ

В этой теме нет новых непрочитанных сообщений. Осколки (1-8 серии из 16) (Владимир Нахабцев мл.) [2018, мелодрама, HDTVRip]

50 | 2

5.08 ГБ

В этой теме нет новых непрочитанных сообщений. Осколки (1-13 серии из 16) (Владимир Нахабцев (мл.)) [2018, мелодрама, HDTVRip-AVC]

13 | 19

10.16 ГБ

В этой теме нет новых непрочитанных сообщений. Дожить до любви (1-6 серии из 16) (Владимир Балкашинов) [2018, мелодрама, HDTVRip]

0 | 0

3.52 ГБ

В этой теме нет новых непрочитанных сообщений. Дожить до любви (1-3 серии из 16) (Владимир Балкашинов) [2018, мелодрама, HDTVRip]

35 | 12

1.8 ГБ

В этой теме нет новых непрочитанных сообщений. Дожить до любви (1-3 серии из 16) (Владимир Балкашинов) [2018, мелодрама, HDTVRip-AVC]

0 | 0

2.07 ГБ




Вы не можете начинать темы
Вы не можете отвечать на сообщения
Вы не можете редактировать свои сообщения
Вы не можете удалять свои сообщения
Вы не можете добавлять вложения

Перейти:  
 Вход
ppkBB3cker v.2 © 2008-2014 @ PPK
[ Time : 0.034s | 15 Queries | GZIP : Off ]

cron