img image001 image001 image001 image001 image001 image001 image001 image001 image001 image001 image001 image001 image001 image001 image001 image001

Planets Sun Sun Sun
Статистика раздачи
Автор: Снежана | Размер: 22.61 ГБ | Добавлен: 19 мар 2018
Раздают: 1    Качают: 1
Скачать торрент
Скачать торрент
Описание торрента

СообщениеДобавлено: 19 мар 2018 

Дежурный врач / Черговий лікар (1-40 серии из 40)

Перевод: Не требуется, cубтитры: отсутствуют
Формат: WEB-DLRip-AVC, MKV, H.264, AC3
Страна: Украина
Режиссер: Константин Денесюк, Александр Онуфриев
Жанр: мелодрама
Всего серий: 40
Продолжительность: 40 x ~ 00:44:00
Год выпуска: 2016-2018

В ролях: Михаил Жонин, Ирина Ткаленко, Руслан Сокольник, Надежда Левченко, Лилия Майборода, Виктория Лушникова, Валентина Вовченко, Леонид Попадько, Елена Новикова (III), Светлана Князева, Михаил Романов (II), Богдан Олейник, Екатерина Духленко, Виктория Левченко (III), Виктор Данилюк, Виктор Полторацкий, Ирина Малыгина, Вероника Лукьяненко, Екатерина Марченко, Артем Каюн, Кристина Мельниченко, Владимир Мельник, Андрей Мерзликин (II), Николай Калинин (II), Мария Тарасова (II), Ева Шевченко-Головко, Вячеслав Стасенко, Алиса Лукшина, Александр Онуфриев, Вероника Братусина, Ульяна Белова, Демьян Шиян, Лариса Мельник, Светлана Брагина, Вильгельмина Меттель, Роман Лукьянов, Яков Забарный, Александра Польгуй, Юрий Козачище, Ирина­­­­­­­­­ Марчук­­­­­­­­­­­­­­­­­­­­­­­­­, Андрей Клименков, Денис Демченко, Юлия Загорная, Юлия Чугай, Вадим Легкий, Виктория Видок, Егор Козлов, Геннадий Василенко, Лев Пичахчи

Описание: История четырех врачей, задача которых спасать жизнь пациентам. События происходят в одной из больниц скорой помощи города Киева. Сюда поступают больные с самими разными случаями. Одним нужна срочная медицинская помощь, а кому-то даже и дельный совет умного человека не помешает. Призвание врачей не навредить. Увидим так ли это в максимально приближенных реальных условиях. И каково быть врачом, крутясь во всем этом круговороте драматических событий?

Рейтинг и доп. информация:


Видео: 1024x576 (16:9), 25 fps, AVC MPEG-4 (x264), ~ 1600 kbps , 0.109 bit/pixel
Аудио: 48 kHz, AC3, 2/0 (L,R) ch, ~192.00 kbps avg
Общее
Уникальный идентификатор : 216267124167717979890042491382351974263 (0xA2B3887572A6A771AF68B1A27BA2CF77)
Полное имя : C:\Дежурный врач.(2016).WEB-DLRip.(AVC).\01.Дежурный врач.(2016).WEB-DLRip.(AVC).mkv
Формат : Matroska
Версия формата : Version 2
Размер файла : 573 Мбайт
Продолжительность : 44 м. 38 с.
Общий поток : 1793 Кбит/сек
Дата кодирования : UTC 2018-01-29 14:26:19
Программа кодирования : mkvmerge v7.8.0 ('River Man') 32bit built on Apr 3 2015 12:11:22
Библиотека кодирования : libebml v1.3.1 + libmatroska v1.4.2

Видео
Идентификатор : 1
Формат : AVC
Формат/Информация : Advanced Video Codec
Профиль формата :
Настройки формата : CABAC / 9 Ref Frames
Параметр CABAC формата : Да
Параметр RefFrames формата : 9 кадров
Идентификатор кодека : V_MPEG4/ISO/AVC
Продолжительность : 44 м. 38 с.
Битрейт : 1600 Кбит/сек
Ширина : 1024 пикселя
Высота : 576 пикселей
Соотношение сторон : 16:9
Режим частоты кадров : Постоянный
Частота кадров : 25,000 кадров/сек
Цветовое пространство : YUV
Субдискретизация насыщенности : 4:2:0
Битовая глубина : 8 бит
Тип развёртки : Прогрессивная
Бит/(Пиксели*Кадры) : 0.109
Размер потока : 500 Мбайт (87%)
Библиотека кодирования : x264 core 146 r2538 121396c
Настройки программы : cabac=1 / ref=9 / deblock=1:-2:-1 / analyse=0x3:0x133 / me=umh / subme=9 / psy=1 / psy_rd=1.00:0.15 / mixed_ref=1 / me_range=32 / chroma_me=1 / trellis=2 / 8x8dct=1 / cqm=0 / deadzone=21,11 / fast_pskip=0 / chroma_qp_offset=-3 / threads=18 / lookahead_threads=3 / sliced_threads=0 / nr=0 / decimate=1 / interlaced=0 / bluray_compat=0 / constrained_intra=0 / bframes=9 / b_pyramid=2 / b_adapt=2 / b_bias=0 / direct=1 / weightb=1 / open_gop=0 / weightp=2 / keyint=250 / keyint_min=25 / scenecut=40 / intra_refresh=0 / rc=2pass / mbtree=0 / bitrate=1600 / ratetol=1.0 / qcomp=0.60 / qpmin=0 / qpmax=69 / qpstep=4 / cplxblur=20.0 / qblur=0.5 / ip_ratio=1.40 / pb_ratio=1.30 / aq=2:1.00
Default : Да
Forced : Нет
Цветовой диапазон : Limited
Основные цвета : BT.709
Характеристики трансфера : BT.709
Коэффициенты матрицы : BT.709

Аудио
Идентификатор : 2
Формат : AC-3
Формат/Информация : Audio Coding 3
Идентификатор кодека : A_AC3
Продолжительность : 44 м. 38 с.
Вид битрейта : Постоянный
Битрейт : 192 Кбит/сек
Каналы : 2 канала
Расположение каналов : Front: L R
Частота : 44,1 КГц
Частота кадров : 28,711 кадров/сек (1536 SPF)
Битовая глубина : 16 бит
Метод сжатия : С потерями
Размер потока : 61,3 Мбайт (11%)
ServiceKind/String : Complete Main
Default : Да
Forced : Нет











   Похожие торренты   Торрент   Размер 
В этой теме нет новых непрочитанных сообщений. Дежурный врач (1-40 серии из 40) (Константин Денесюк, Александр Онуфриев) [2016-2018, мелодрама, WEB-DLRip]

31 | 5

21.54 ГБ

В этой теме нет новых непрочитанных сообщений. Дежурный врач (21-40 серии из 40) (Константин Денесюк, Александр Онуфриев) [2016-2018, мелодрама, WEB-DL 720p]

4 | 0

23.31 ГБ

В этой теме нет новых непрочитанных сообщений. Дежурный врач (1-28 серии из 40) (Константин Денесюк, Александр Онуфриев) [2016, мелодрама, WEB-DLRip-AVC]

4 | 2

15.82 ГБ

В этой теме нет новых непрочитанных сообщений. Дежурный врач (1-32 серии из 40) (Константин Денесюк, Александр Онуфриев) [2016, мелодрама, WEB-DLRip]

4 | 2

17.77 ГБ

В этой теме нет новых непрочитанных сообщений. Дежурный врач (1-31 серии из 40) (Константин Денесюк, Александр Онуфриев) [2016, мелодрама, WEB-DLRip-AVC]

0 | 2

17.52 ГБ

В этой теме нет новых непрочитанных сообщений. Дежурный врач (1-30 серии из 40) (Константин Денесюк, Александр Онуфриев) [2016, мелодрама, WEB-DLRip]

2 | 1

16.12 ГБ

В этой теме нет новых непрочитанных сообщений. Дежурный врач (1-33 серии из 40) (Константин Денесюк, Александр Онуфриев) [2016, мелодрама, WEB-DLRip-AVC]

0 | 4

18.64 ГБ




Вы не можете начинать темы
Вы не можете отвечать на сообщения
Вы не можете редактировать свои сообщения
Вы не можете удалять свои сообщения
Вы не можете добавлять вложения

Перейти:  
 Вход
ppkBB3cker v.2 © 2008-2014 @ PPK
[ Time : 0.043s | 16 Queries | GZIP : Off ]

cron