img image001 image001 image001 image001 image001 image001 image001 image001 image001 image001 image001 image001 image001 image001 image001 image001

Planets Sun Sun Sun
Статистика раздачи
Автор: Снежана | Размер: 1.6 ГБ | Добавлен: 17 мар 2018
Раздают: 10    Качают: 0
Скачать торрент
Скачать торрент
Описание торрента

СообщениеДобавлено: 17 мар 2018 

Банзай / Banzai


Перевод: Профессиональный (многоголосый), субтитры: отсутствуют
Формат: DVDRip-AVC, MKV, H.264, AC3
Страна: Италия
Режиссер: Карло Ванцина
Жанр: Комедия
Продолжительность: 01:20:21
Год выпуска: 1997
В ролях: Паоло Вилладжо, Джида Альбанезе, Антонио Баллерио, Романа Колуцци, Франческо Де Роза
Описание: Серджио Коломбо — страховой агент. Он только что пережил развод с женой и несколько рассеян. Желая развеяться, он заводит пышную любовницу, собирается с ней в отпуск, но тут его неожиданно командируют в Канаду для подписания важного контракта. В аэропорту по ошибке Коломбо садится на самолет, который летит в направлении, прямо противоположном Канаде — в Банкгок.



Видео: 702x458 (16:10), 25,000 fps, AVC MPEG-4, ~ 2400 Кбит/сек, 0.299 bit/pixel
Аудио #1: Русский: 48 kHz, AC3 2ch (L,R) ~192 kbps [Профессиональный (многоголосый)]
Аудио #2: Итальянский: 48 kHz, AC3 2ch (L,R) ~256 kbps [Оригинал]






Формат : Matroska
Версия формата : Version 2
Размер файла : 1,60 Гбайт
Продолжительность : 1 ч. 20 м.
Общий поток : 2850 Кбит/сек
Дата кодирования : UTC 2018-03-16 13:40:15
Программа кодирования : mkvmerge v7.8.0 ('River Man') 32bit built on Apr 3 2015 12:11:22
Библиотека кодирования : libebml v1.3.1 + libmatroska v1.4.2

Видео
Идентификатор : 1
Формат : AVC
Формат/Информация : Advanced Video Codec
Профиль формата :
Настройки формата : CABAC / 14 Ref Frames
Параметр CABAC формата : Да
Параметр RefFrames формата : 14 кадров
Идентификатор кодека : V_MPEG4/ISO/AVC
Продолжительность : 1 ч. 20 м.
Битрейт : 2400 Кбит/сек
Ширина : 702 пикселя
Высота : 458 пикселей
Соотношение сторон : 16:10
Соотношение сторон в оригинале : 16:10
Режим частоты кадров : Постоянный
Частота кадров : 25,000 кадров/сек
Цветовое пространство : YUV
Субдискретизация насыщенности : 4:2:0
Битовая глубина : 8 бит
Тип развёртки : Прогрессивная
Бит/(Пиксели*Кадры) : 0.299
Размер потока : 1,32 Гбайт (82%)
Библиотека кодирования : x264 core 148 r2638 7599210
Настройки программы : cabac=1 / ref=14 / deblock=1:-2:-2 / analyse=0x3:0x133 / me=umh / subme=10 / psy=1 / psy_rd=1.05:0.15 / mixed_ref=1 / me_range=32 / chroma_me=1 / trellis=2 / 8x8dct=1 / cqm=0 / deadzone=21,11 / fast_pskip=0 / chroma_qp_offset=-3 / threads=4 / lookahead_threads=1 / sliced_threads=0 / nr=0 / decimate=0 / interlaced=0 / bluray_compat=0 / constrained_intra=0 / bframes=16 / b_pyramid=2 / b_adapt=2 / b_bias=0 / direct=3 / weightb=1 / open_gop=0 / weightp=2 / keyint=250 / keyint_min=25 / scenecut=40 / intra_refresh=0 / rc=2pass / mbtree=0 / bitrate=2400 / ratetol=1.0 / qcomp=0.60 / qpmin=0 / qpmax=69 / qpstep=4 / cplxblur=20.0 / qblur=0.5 / ip_ratio=1.40 / pb_ratio=1.30 / aq=1:1.00
Язык : English
Default : Да
Forced : Нет
Цветовой диапазон : Limited
Основные цвета : BT.601 NTSC
Характеристики трансфера : BT.601
Коэффициенты матрицы : BT.601

Аудио #1
Идентификатор : 2
Формат : AC-3
Формат/Информация : Audio Coding 3
Идентификатор кодека : A_AC3
Продолжительность : 1 ч. 20 м.
Вид битрейта : Постоянный
Битрейт : 192 Кбит/сек
Каналы : 2 канала
Расположение каналов : Front: L R
Частота : 48,0 КГц
Частота кадров : 31,250 кадров/сек (1536 SPF)
Битовая глубина : 16 бит
Метод сжатия : С потерями
Размер потока : 110 Мбайт (7%)
Язык : Russian
ServiceKind/String : Complete Main
Default : Да
Forced : Нет

Аудио #2
Идентификатор : 3
Формат : AC-3
Формат/Информация : Audio Coding 3
Идентификатор кодека : A_AC3
Продолжительность : 1 ч. 20 м.
Вид битрейта : Постоянный
Битрейт : 256 Кбит/сек
Каналы : 2 канала
Расположение каналов : Front: L R
Частота : 48,0 КГц
Частота кадров : 31,250 кадров/сек (1536 SPF)
Битовая глубина : 16 бит
Метод сжатия : С потерями
Размер потока : 147 Мбайт (9%)
Язык : Italian
ServiceKind/String : Complete Main
Default : Нет
Forced : Нет



   Похожие торренты   Торрент   Размер 
В этой теме нет новых непрочитанных сообщений. Я не говорю по-английски / Io no spik inglish (Карло Ванцина) [1995, комедия, DVDRip-AVC] MVO+AVO

2 | 0

1.92 ГБ

В этой теме нет новых непрочитанных сообщений. Банзай / Banzaï (1983) DVDRip от Scarabey | D

132 | 14

1.45 ГБ

В этой теме нет новых непрочитанных сообщений. Банзай / Banzaï (1983) BDRemux 1080р | P

6 | 2

25.62 ГБ

В этой теме нет новых непрочитанных сообщений. Банзай / Banzaï (1983) BDRip 720р | D, P | Remastered

0 | 0

4.44 ГБ

В этой теме нет новых непрочитанных сообщений. Банзай / Banzaï (1983) BDRemux 1080р | D, P | Remastered

0 | 0

26.31 ГБ

В этой теме нет новых непрочитанных сообщений. Банзай / Banzaï (1983) BDRip 1080р | D, P | Remastered

0 | 0

12 ГБ

В этой теме нет новых непрочитанных сообщений. Жить как короли / Comme des rois (Франсуа Вель) [1997, комедия, DVDRip] MVO

93 | 7

1.37 ГБ




Вы не можете начинать темы
Вы не можете отвечать на сообщения
Вы не можете редактировать свои сообщения
Вы не можете удалять свои сообщения
Вы не можете добавлять вложения

Перейти:  
 Вход
ppkBB3cker v.2 © 2008-2014 @ PPK
[ Time : 0.030s | 17 Queries | GZIP : Off ]

cron