img image001 image001 image001 image001 image001 image001 image001 image001 image001 image001 image001 image001 image001 image001 image001 image001

Planets Sun Sun Sun
Статистика раздачи
Автор: Снежана | Размер: 9.57 ГБ | Добавлен: 17 мар 2018
Раздают: 123    Качают: 8
Скачать торрент
Скачать торрент
Описание торрента

СообщениеДобавлено: 17 мар 2018 

Фердинанд / Ferdinand


Перевод: Профессиональный (полное дублирование) Лицензия BD EUR
Cубтитры: Русские, английские
Формат: BDRip, MKV, H.264, AC3/DTS
Страна: США
Режиссер: Карлос Салдана
Жанр: Семейный, комедия, мультфильм
Продолжительность: 01:48:05
Год выпуска: 2017
В ролях: Джон Сина, Кейт МакКиннон, Дэвид Теннант, Бобби Каннавейл, Энтони Андерсон, Джек Гор, Джет Юргенсмейер, Найл Диас, Колин Х. Мерфи, Карлос Салдана
Описание: Фердинанд — самый добродушный бык во всей Испании. Несмотря на внушительные размеры и недюжинную силу, он с детства предпочитал сидеть на лужайке и любоваться цветами вместо того, чтобы бодаться с другими быками. По нелепой случайности Фердинанд был выбран среди других соплеменников для участия в бое быков в Мадриде.



Видео: 1920x804p (2.40:1), 23,976 fps, AVC MPEG-4 (x264), , ~ 9 500 Kbit/s, 0.257 bit/pixel

Аудио #1: Русский: 48 kHz/24-bit, DTS, 6 ch, ~ 768 kbps avg [Профессиональный (полное дублирование), Лицензия BD EUR]
Аудио #2: Русский: 48 kHz/16-bit, AC3 Dolby Digital, 6 ch, ~ 448 kbps avg [Профессиональный (полное дублирование), Лицензия BD EUR]
Аудио #3: Украинский: 48 kHz/16-bit, AC3 Dolby Digital, 6 ch, ~ 448 kbps avg [Профессиональный (полное дублирование), Лицензия BD EUR]
Аудио #4: Английский: 48 kHz/24-bit, DTS, 6 ch, ~ 1 509 kbps avg [Оригинал]





Unique ID : 106002530868380497976290559372535718304 (0x4FBF58474E0634770C1D51333806E1A0)
Complete name : C:Video111Ferdinand.2017.BDRip.1080p.ExKinoRay.mkv
Format : Matroska
Format version : Version 4 / Version 2
File size : 9.57 GiB
Duration : 1 h 48 min
Overall bit rate : 12.7 Mb/s
Movie name : Ferdinand 2017 from ExKinoRay
Encoded date : UTC 2018-03-15 17:14:55
Writing application : mkvmerge v21.0.0 ('Tardigrades Will Inherit The Earth') 64-bit
Writing library : libebml v1.3.5 + libmatroska v1.4.8

Video
ID : 1
Format : AVC
Format/Info : Advanced Video Codec
Format profile :
Format settings : CABAC / 5 Ref Frames
Format settings, CABAC : Yes
Format settings, ReFrames : 5 frames
Codec ID : V_MPEG4/ISO/AVC
Duration : 1 h 48 min
Bit rate : 9 500 kb/s
Width : 1 920 pixels
Height : 804 pixels
Display aspect ratio : 2.40:1
Frame rate mode : Constant
Frame rate : 23.976 (24000/1001) FPS
Color space : YUV
Chroma subsampling : 4:2:0
Bit depth : 8 bits
Scan type : Progressive
Bits/(Pixel*Frame) : 0.257
Stream size : 7.17 GiB (75%)
Writing library : x264 core 130 r2273 b3065e6
Encoding settings : cabac=1 / ref=5 / deblock=1:-1:-1 / analyse=0x3:0x113 / me=umh / subme=11 / psy=1 / psy_rd=1.00:0.05 / mixed_ref=1 / me_range=32 / chroma_me=1 / trellis=2 / 8x8dct=1 / cqm=0 / deadzone=21,11 / fast_pskip=0 / chroma_qp_offset=-5 / threads=12 / lookahead_threads=2 / sliced_threads=0 / nr=0 / decimate=0 / interlaced=0 / bluray_compat=0 / constrained_intra=0 / bframes=8 / b_pyramid=2 / b_adapt=2 / b_bias=0 / direct=3 / weightb=1 / open_gop=0 / weightp=2 / keyint=250 / keyint_min=23 / scenecut=40 / intra_refresh=0 / rc_lookahead=80 / rc=2pass / mbtree=1 / bitrate=9500 / ratetol=1.0 / qcomp=0.60 / qpmin=0 / qpmax=69 / qpstep=4 / cplxblur=20.0 / qblur=0.5 / ip_ratio=1.40 / aq=1:0.90
Language : English
Default : Yes
Forced : No

Audio #1
ID : 2
Format : DTS
Format/Info : Digital Theater Systems
Codec ID : A_DTS
Duration : 1 h 48 min
Bit rate mode : Constant
Bit rate : 768 kb/s
Channel(s) : 6 channels
Channel positions : Front: L C R, Side: L R, LFE
Sampling rate : 48.0 kHz
Frame rate : 93.750 FPS (512 SPF)
Bit depth : 24 bits
Compression mode : Lossy
Stream size : 594 MiB (6%)
Title : Dub [License]
Language : Russian
Default : Yes
Forced : Yes

Audio #2
ID : 3
Format : AC-3
Format/Info : Audio Coding 3
Codec ID : A_AC3
Duration : 1 h 48 min
Bit rate mode : Constant
Bit rate : 448 kb/s
Channel(s) : 6 channels
Channel positions : Front: L C R, Side: L R, LFE
Sampling rate : 48.0 kHz
Frame rate : 31.250 FPS (1536 SPF)
Bit depth : 16 bits
Compression mode : Lossy
Stream size : 347 MiB (4%)
Title : Dub [License]
Language : Russian
Service kind : Complete Main
Default : No
Forced : No

Audio #3
ID : 4
Format : AC-3
Format/Info : Audio Coding 3
Codec ID : A_AC3
Duration : 1 h 48 min
Bit rate mode : Constant
Bit rate : 448 kb/s
Channel(s) : 6 channels
Channel positions : Front: L C R, Side: L R, LFE
Sampling rate : 48.0 kHz
Frame rate : 31.250 FPS (1536 SPF)
Bit depth : 16 bits
Compression mode : Lossy
Stream size : 347 MiB (4%)
Title : Dub [License]
Language : Ukrainian
Service kind : Complete Main
Default : No
Forced : No

Audio #4
ID : 5
Format : DTS
Format/Info : Digital Theater Systems
Codec ID : A_DTS
Duration : 1 h 48 min
Bit rate mode : Constant
Bit rate : 1 509 kb/s
Channel(s) : 6 channels
Channel positions : Front: L C R, Side: L R, LFE
Sampling rate : 48.0 kHz
Frame rate : 93.750 FPS (512 SPF)
Bit depth : 24 bits
Compression mode : Lossy
Stream size : 1.14 GiB (12%)
Title : Original
Language : English
Default : No
Forced : No

Text #1
ID : 6
Format : UTF-8
Codec ID : S_TEXT/UTF8
Codec ID/Info : UTF-8 Plain Text
Duration : 1 h 46 min
Bit rate : 53 b/s
Count of elements : 1147
Stream size : 41.6 KiB (0%)
Title : Full
Language : Russian
Default : No
Forced : No

Text #2
ID : 7
Format : UTF-8
Codec ID : S_TEXT/UTF8
Codec ID/Info : UTF-8 Plain Text
Duration : 1 h 35 min
Bit rate : 45 b/s
Count of elements : 1237
Stream size : 32.1 KiB (0%)
Title : Full
Language : English
Default : No
Forced : No

Text #3
ID : 8
Format : UTF-8
Codec ID : S_TEXT/UTF8
Codec ID/Info : UTF-8 Plain Text
Duration : 1 h 43 min
Bit rate : 58 b/s
Count of elements : 1812
Stream size : 43.9 KiB (0%)
Title : SDH
Language : English
Default : No
Forced : No

Menu
00:00:00.000 : en:00:00:00.000
00:05:20.028 : en:00:05:20.028
00:10:17.951 : en:00:10:17.951
00:13:59.589 : en:00:13:59.589
00:22:33.060 : en:00:22:33.060
00:29:23.178 : en:00:29:23.178
00:37:09.519 : en:00:37:09.519
00:41:04.587 : en:00:41:04.587
00:48:26.904 : en:00:48:26.904
00:56:16.498 : en:00:56:16.498
01:02:38.463 : en:01:02:38.463
01:10:57.003 : en:01:10:57.003
01:18:41.467 : en:01:18:41.467
01:24:05.791 : en:01:24:05.791
01:30:25.629 : en:01:30:25.629
01:35:58.753 : en:01:35:58.753
01:39:33.968 : en:01:39:33.968
01:45:20.105 : en:01:45:20.105
01:52:55.227 : en:01:52:55.227
01:59:45.011 : en:01:59:45.011





   Похожие торренты   Торрент   Размер 
В этой теме нет новых непрочитанных сообщений. Фердинанд / Ferdinand (Карлос Салдана ) [2017, Семейный, комедия, мультфильм , BDRip 720p] 2xDUB (rus)+DUB (ukr) / Мультфильмы (HD/BD Video)

80 | 7

6.02 ГБ

В этой теме нет новых непрочитанных сообщений. Фердинанд / Ferdinand (Карлос Салдана ) [2017, Семейный, комедия, мультфильм, BDRip-AVC] DUB

508 | 4

1.46 ГБ

В этой теме нет новых непрочитанных сообщений. Фердинанд / Ferdinand (Карлос Салдана ) [2017, Семейный, комедия, мультфильм , BDRip] DUB

1361 | 19

1.46 ГБ

В этой теме нет новых непрочитанных сообщений. Фердинанд / Ferdinand (Карлос Салдана ) [2017, Семейный, комедия, мультфильм, BDRip] DUB

95 | 5

744.75 МБ

В этой теме нет новых непрочитанных сообщений. Мы – монстры / Happy Family (Хольгер Таппе) [2017, мультфильм, ужасы, комедия, семейный, WEB-DL 1080p] 2xDUB (rus,ukr) [iTunes] / Мультфильмы (HD/BD Video)

20 | 0

3.42 ГБ

В этой теме нет новых непрочитанных сообщений. Босс-молокосос / The Boss Baby (Том МакГрат) [2017, мультфильм, комедия, семейный, BDRip 720p] 2xDUB (rus, ukr) / Мультфильмы (HD/BD Video)

8 | 3

5.71 ГБ

В этой теме нет новых непрочитанных сообщений. Монстры на каникулах 2 / Hotel Transylvania 2 (Генндий Тартаковский) [2015, мультфильм, фэнтези, комедия, семейный, BDRip 1080p] 2xDUB (rus, ukr) / Мультфильмы (HD/BD Video)

1512 | 108

5.99 ГБ




Вы не можете начинать темы
Вы не можете отвечать на сообщения
Вы не можете редактировать свои сообщения
Вы не можете удалять свои сообщения
Вы не можете добавлять вложения

Перейти:  
 Вход
ppkBB3cker v.2 © 2008-2014 @ PPK
[ Time : 0.028s | 16 Queries | GZIP : Off ]

cron