img image001 image001 image001 image001 image001 image001 image001 image001 image001 image001 image001 image001 image001 image001 image001 image001

Planets Sun Sun Sun
Статистика раздачи
Автор: Снежана | Размер: 2.9 ГБ | Добавлен: 19 фев 2018
Раздают: 0    Качают: 0
Скачать торрент
Скачать торрент
Описание торрента

СообщениеДобавлено: 19 фев 2018 

Афера Томаса Крауна / The Thomas Crown Affair

Перевод: Профессиональный (многоголосый, закадровый)
Субтитры: английские
Формат: BDRip-AVC, MKV, H.264, AC3
Страна: США
Режиссер: Норман Джуисон
Жанр: триллер, драма, мелодрама, криминал
Продолжительность: 01:42:21
Год выпуска: 1968

В ролях: Стив МакКуин, Фэй Данауэй, Пол Бурк, Джек Уэстон, Бифф МакГуайр, Эддисон Пауэлл, Астрид Хирен, Гордон Пинсент, Яфет Котто, Сидни Армус

Описание: Бостонский миллионер Томас Краун разрабатывает план гениального ограбления банка, считая, что всё сойдёт ему с рук. Уставший быть частью истеблишмента, он надеется провернуть дельце и улететь в Рио. Эрвин Вивер — возглавляет банду грабителей, которые ни разу не встречались с Крауном, организовавшим ограбление без единой зацепки. Краун кладёт три миллиона украденных долларов на счёт в Швейцарском банке, расплачивается с грабителями, и ждёт, когда страховая компания выплатит банку страховку. Эдди Мэлоун — смекалистый детектив помогает страховому следователю Вики Андерсон в поисках гения стоящего за организацией ограбления.



Видео: 1024x556 (1.85:1), 23.976 fps, AVC MPEG-4 (H.264), ~3480 kbps, 0.255 bit/pixel
Аудио #1: Русский: 48 kHz, AC3 Dolby Digital, 2 ch, ~192 kbps [Профессиональный (многоголосый, закадровый)] DVD Магия
Аудио #2: Русский: 48 kHz, AC3 Dolby Digital, 2 ch, ~192 kbps [Профессиональный (многоголосый, закадровый)] НТВ+
Аудио #3: Английский: 48 kHz, AC3 Dolby Digital, 2 ch, ~192 kbps [Оригинал]

Формат : Matroska
Версия формата : Version 4 / Version 2
Размер файла : 2,90 Гбайт
Продолжительность : 1 ч. 42 м.
Общий поток : 4058 Кбит/сек
Название фильма : The.Thomas.Crown.Affair.1968.BDRip.AVC by Koenig
Дата кодирования : UTC 2018-02-16 19:18:01
Программа кодирования : mkvmerge v12.0.0 ('Trust / Lust') 32bit
Библиотека кодирования : libebml v1.3.4 + libmatroska v1.4.5
Обложка : Yes
Attachments : cover.jpg

Видео
Идентификатор : 1
Формат : AVC
Формат/Информация : Advanced Video Codec
Профиль формата :
Параметр CABAC формата : Да
Параметр ReFrames формата : 11 кадров
Идентификатор кодека : V_MPEG4/ISO/AVC
Продолжительность : 1 ч. 42 м.
Битрейт : 3480 Кбит/сек
Ширина : 1024 пикселя
Высота : 556 пикселей
Соотношение сторон : 1,85:1
Режим частоты кадров : Постоянный
Частота кадров : 23,976 (24000/1001) кадра/сек
Цветовое пространство : YUV
Субдискретизация насыщенности : 4:2:0
Битовая глубина : 8 бит
Тип развёртки : Прогрессивная
Бит/(Пиксели*Кадры) : 0.255
Размер потока : 2,49 Гбайт (86%)
Заголовок : The.Thomas.Crown.Affair.1968.BDRip.AVC
Библиотека кодирования : x264 core 152 r2851 ba24899
Настройки программы : cabac=1 / ref=11 / deblock=1:-3:-3 / analyse=0x3:0x133 / me=umh / subme=10 / psy=1 / psy_rd=1.00:0.05 / mixed_ref=1 / me_range=32 / chroma_me=1 / trellis=2 / 8x8dct=1 / cqm=0 / deadzone=21,11 / fast_pskip=0 / chroma_qp_offset=-3 / threads=3 / lookahead_threads=1 / sliced_threads=0 / nr=0 / decimate=1 / interlaced=0 / bluray_compat=0 / constrained_intra=0 / bframes=12 / b_pyramid=2 / b_adapt=2 / b_bias=0 / direct=3 / weightb=1 / open_gop=0 / weightp=2 / keyint=240 / keyint_min=23 / scenecut=40 / intra_refresh=0 / rc_lookahead=40 / rc=2pass / mbtree=1 / bitrate=3480 / ratetol=1.0 / qcomp=0.60 / qpmin=10 / qpmax=51 / qpstep=4 / cplxblur=20.0 / qblur=0.5 / vbv_maxrate=50000 / vbv_bufsize=62500 / nal_hrd=none / filler=0 / ip_ratio=1.40 / aq=1:1.00
Default : Да
Forced : Нет

Аудио #1
Идентификатор : 2
Формат : AC-3
Формат/Информация : Audio Coding 3
Параметр Endianness формата : Big
Идентификатор кодека : A_AC3
Продолжительность : 1 ч. 42 м.
Вид битрейта : Постоянный
Битрейт : 192 Кбит/сек
Каналы : 2 канала
Расположение каналов : Front: L R
Частота : 48,0 КГц
Частота кадров : 31,250 кадров/сек (1536 spf)
Битовая глубина : 16 бит
Метод сжатия : С потерями
Размер потока : 141 Мбайт (5%)
Заголовок : MVO - DVD Магия
Язык : Russian
ServiceKind/String : Complete Main
Default : Да
Forced : Нет

Аудио #2
Идентификатор : 3
Формат : AC-3
Формат/Информация : Audio Coding 3
Параметр Endianness формата : Big
Идентификатор кодека : A_AC3
Продолжительность : 1 ч. 42 м.
Вид битрейта : Постоянный
Битрейт : 192 Кбит/сек
Каналы : 2 канала
Расположение каналов : Front: L R
Частота : 48,0 КГц
Частота кадров : 31,250 кадров/сек (1536 spf)
Битовая глубина : 16 бит
Метод сжатия : С потерями
Размер потока : 141 Мбайт (5%)
Заголовок : MVO - НТВ+
Язык : Russian
ServiceKind/String : Complete Main
Default : Нет
Forced : Нет

Аудио #3
Идентификатор : 4
Формат : AC-3
Формат/Информация : Audio Coding 3
Параметр Endianness формата : Big
Идентификатор кодека : A_AC3
Продолжительность : 1 ч. 42 м.
Вид битрейта : Постоянный
Битрейт : 192 Кбит/сек
Каналы : 2 канала
Расположение каналов : Front: L R
Частота : 48,0 КГц
Частота кадров : 31,250 кадров/сек (1536 spf)
Битовая глубина : 16 бит
Метод сжатия : С потерями
Размер потока : 141 Мбайт (5%)
Заголовок : Original
Язык : English
ServiceKind/String : Complete Main
Default : Нет
Forced : Нет

Текст
Идентификатор : 5
Формат : UTF-8
Идентификатор кодека : S_TEXT/UTF8
Идентификатор кодека/Информация : UTF-8 Plain Text
Продолжительность : 1 ч. 40 м.
Битрейт : 44 бит/сек
ElementCount : 1182
Размер потока : 32,8 Кбайт (0%)
Язык : English
Default : Да
Forced : Нет

Меню
00:00:00.000 : en:Logo / Title / Interview
00:05:56.939 : en:The Wheeler Dealer
00:08:07.737 : en:Puzzling Out A Plot
00:13:49.203 : en:Elevated Bank Heist
00:18:59.596 : en:The Getaway
00:22:01.987 : en:Drop Off / Pick Up
00:25:32.197 : en:A Toast To A Genius
00:27:40.617 : en:Investigating Beauty
00:29:34.939 : en:Pressing Police
00:31:13.121 : en:Nothing To Declare
00:33:21.582 : en:Swiss Deposit
00:34:52.340 : en:Insurance Pays
00:35:47.979 : en:Meeting Miss Vicki
00:37:33.084 : en:Betting On The Green
00:39:39.043 : en:Earning Her Keep
00:41:07.673 : en:THE WINDMILLS OF YOUR MIND
00:43:56.759 : en:Smoking Out Answers
00:46:13.103 : en:"What's His Name?"
00:48:03.672 : en:Polo Play
00:50:32.487 : en:Artful Headhunting
00:56:21.336 : en:Finking On Your Man
00:57:28.403 : en:Hot-Wired Kidnapping
00:59:13.883 : en:Goodwill Bribe
01:02:29.746 : en:Icy Round Three
01:06:28.442 : en:Castle / Chess / Mating
01:16:57.821 : en:Dune Buggy Romance
01:20:35.664 : en:Fighting Back
01:27:18.107 : en:Turning Up The Heat
01:29:55.098 : en:"I Can Do It Again!"
01:33:25.766 : en:"The Last Supper"
01:36:40.336 : en:Cemetary Surprise
01:41:36.381 : en:End Credits












   Похожие торренты   Торрент   Размер 
В этой теме нет новых непрочитанных сообщений. Афера Томаса Крауна / The Thomas Crown Affair (1968) BDRip-AVC от E76 | P, A

35 | 6

3.58 ГБ

В этой теме нет новых непрочитанных сообщений. Афера Томаса Крауна / The Thomas Crown Affair (1999) BDRip 720p | P, A

98 | 76

7.94 ГБ

В этой теме нет новых непрочитанных сообщений. Афера Томаса Крауна / The Thomas Crown Affair (1999) BDRip 1080p от denis 100

179 | 32

7.71 ГБ

В этой теме нет новых непрочитанных сообщений. Афера Томаса Крауна / The Thomas Crown Affair (1999) BD Remux | P, A

1 | 3

31.51 ГБ

В этой теме нет новых непрочитанных сообщений. Афера Томаса Крауна / The Thomas Crown Affair (1999) HDRip от Scarabey | Р

316 | 19

1.45 ГБ

В этой теме нет новых непрочитанных сообщений. Афера Томаса Крауна / The Thomas Crown Affair (1999) HDRip от Scarabey | Р

212 | 23

748.28 МБ

В этой теме нет новых непрочитанных сообщений. Правосудие для всех / ...And Justice for All (Норман Джуисон) [1979, триллер, драма, криминал, BDRip] MVO

4 | 0

1.46 ГБ




Вы не можете начинать темы
Вы не можете отвечать на сообщения
Вы не можете редактировать свои сообщения
Вы не можете удалять свои сообщения
Вы не можете добавлять вложения

Перейти:  
 Вход
ppkBB3cker v.2 © 2008-2014 @ PPK
[ Time : 0.030s | 16 Queries | GZIP : Off ]

cron