img image001 image001 image001 image001 image001 image001 image001 image001 image001 image001 image001 image001 image001 image001 image001 image001

Planets Sun Sun Sun
Статистика раздачи
Автор: Снежана | Размер: 1.46 ГБ | Добавлен: 19 фев 2018
Раздают: 2    Качают: 0
Скачать торрент
Скачать торрент
Описание торрента

СообщениеДобавлено: 19 фев 2018 

Непостижимое / Inconceivable


Перевод: Любительский (многоголосый закадровый) [GreenРай Studio], субтитры: отсутствуют
Формат: HDRip-AVC, MKV, H.264, AC3
Страна: США
Режиссер: Джонатан Бэйкер
Жанр: триллер, драма
Продолжительность: 01:46:42
Год выпуска: 2017
В ролях: Николас Кейдж, Фэй Данауэй, Джина Гершон, Никки Уилан, Натали Эва Мари, Тайлер Джон Олсон, Джонатан Бэйкер, Джеймс Ван Паттен, Эли Бардха

Описание: Загадочная молодая девушка Кэти вместе со своей дочерью переезжает в новый город, чтобы сбежать от прошлого. Там она быстро находит общий язык с женщиной по имени Анджела Морган, которая живёт с мужем Брайаном и дочерью. Анджела приглашает новую подругу пожить в их гостевом домике и поработать у них в качестве няни. Вскоре Морганы замечают, что Кэти как-то слишком привязана к их дочери.



Видео: 1024x432 (2.40:1), 23,976 fps, AVC MPEG-4 (x264), , ~ 1723 kb/s, 0.162 bit/pixel
Аудио: 48 kHz, AC3 Dolby Digital, 2/0 (L,R) ch, ~192 kbps

Доп. информация: Присутствует реклама!
General
Unique ID : 288377139534410760977919706274330279354 (0xD8F36AB5691BD3C9238780951CCB7DBA)
Complete name : C:\Users\Юрик\Downloads\Inconceivable.2017.P_[tfile.ru].mkv
Format : Matroska
Format version : Version 2
File size : 1.46 GiB
Duration : 1 h 46 min
Overall bit rate : 1 954 kb/s
Writing application : Lavf55.12.100
Writing library : Lavf55.12.100

Video
ID : 2
Format : AVC
Format/Info : Advanced Video Codec
Format profile :
Format settings, CABAC : Yes
Format settings, RefFrames : 2 frames
Format settings, GOP : M=1, N=12
Codec ID : V_MPEG4/ISO/AVC
Duration : 1 h 46 min
Bit rate : 1 723 kb/s
Width : 1 024 pixels
Height : 432 pixels
Display aspect ratio : 2.40:1
Frame rate mode : Constant
Frame rate : 23.976 (24000/1001) FPS
Color space : YUV
Chroma subsampling : 4:2:0
Bit depth : 8 bits
Scan type : Progressive
Bits/(Pixel*Frame) : 0.162
Stream size : 1.28 GiB (88%)
Language : English
Default : Yes
Forced : No
Statistics Tags Issue : mkvmerge v7.4.0 ('Circles') 64bit built on Dec 12 2014 12:19:56 2018-02-17 11:13:02 / Lavf55.12.100
FromStats_BitRate : 3828781
FromStats_Duration : 01:46:42.104000000
FromStats_FrameCount : 153498
FromStats_StreamSize : 3064032330

Audio
ID : 1
Format : AC-3
Format/Info : Audio Coding 3
Format settings, Endianness : Big
Codec ID : A_AC3
Duration : 1 h 46 min
Bit rate mode : Constant
Bit rate : 192 kb/s
Channel(s) : 2 channels
Channel positions : Front: L R
Sampling rate : 48.0 kHz
Frame rate : 31.250 FPS (1536 SPF)
Bit depth : 16 bits
Compression mode : Lossy
Stream size : 147 MiB (10%)
Service kind : Complete Main
Default : Yes
Forced : No
Statistics Tags Issue : mkvmerge v7.4.0 ('Circles') 64bit built on Dec 12 2014 12:19:56 2018-02-17 11:13:02 / Lavf55.12.100
FromStats_BitRate : 192000
FromStats_Duration : 01:46:42.080000000
FromStats_FrameCount : 200065
FromStats_StreamSize : 153649920










   Похожие торренты   Торрент   Размер 
В этой теме нет новых непрочитанных сообщений. Непостижимое / Inconceivable (Джонатан Бэйкер) [2017, триллер, драма, WEBDLRip] MVO

14 | 0

1.37 ГБ

В этой теме нет новых непрочитанных сообщений. Кин / Kin (Джонатан Бэйкер, Джош Бэйкер ) [2018, фантастика, боевик , HDRip-AVC] DUB

150 | 9

1.45 ГБ

В этой теме нет новых непрочитанных сообщений. Кин / Kin (Джонатан Бэйкер, Джош Бэйкер) [2018, фантастика, боевик, HDRip] DUB

83 | 7

1.46 ГБ

В этой теме нет новых непрочитанных сообщений. Непостижимое / Inconceivable (2017) WEB-DL 720p | L

337 | 17

3.39 ГБ

В этой теме нет новых непрочитанных сообщений. Непостижимое / Inconceivable (2017) WEB-DL 1080p | L

403 | 15

4.01 ГБ

В этой теме нет новых непрочитанных сообщений. Непостижимое / Inconceivable (2017) WEB-DLRip | L

1294 | 62

1.37 ГБ

В этой теме нет новых непрочитанных сообщений. Кин / Kin (Джонатан Бэйкер, Джош Бэйкер) [2018, фантастика, боевик, WEBDLRip] DUB

104 | 0

1.46 ГБ




Вы не можете начинать темы
Вы не можете отвечать на сообщения
Вы не можете редактировать свои сообщения
Вы не можете удалять свои сообщения
Вы не можете добавлять вложения

Перейти:  
 Вход
ppkBB3cker v.2 © 2008-2014 @ PPK
[ Time : 0.028s | 19 Queries | GZIP : Off ]

cron