img image001 image001 image001 image001 image001 image001 image001 image001 image001 image001 image001 image001 image001 image001 image001 image001

Planets Sun Sun Sun
Статистика раздачи
Автор: Снежана | Размер: 1.39 ГБ | Добавлен: 19 фев 2018
Раздают: 3    Качают: 0
Скачать торрент
Скачать торрент
Описание торрента

СообщениеДобавлено: 19 фев 2018 

На линии огня / In the Line of Fire


Перевод: Авторский (одноголосый) М.Яроцкий, субтитры: нет
Формат: HDRip-AVC, MKV, H.264, AC3
Страна: США
Режиссер: Вольфганг Петерсен
Жанр: боевик, триллер, драма, криминал, детектив
Продолжительность: 02:08:36
Год выпуска: 1993

В ролях: Клинт Иствуд, Джон Малкович, Рене Руссо, Дилан МакДермотт, Гэри Коул, Фрэд Долтон Томпсон, Джон Махоуни, Грегори Алан Уильямс, Джим Карли, Салли Хьюз

Описание: В тот злополучный день, когда в Далласе был убит президент Кеннеди, Фрэнк Хорриган находился среди охраны. Воспоминания о невыполненной миссии уже много лет не дают ему спать спокойно.
Спустя 30 лет маньяк-психопат, угрожающий убить президента, выбирает Фрэнка мишенью для преследования. И в этой опасной игре только сила воли решит, кто останется в живых…




Видео: 1088x452 (2,40:1), 23,976 fps, MPEG4 AVC (x264), ~1098 kbps avg, 0.093 bit/pixel
Аудио: 48 kHz, AC3 Dolby Digital, 3/2 (L,C,R) + L R, LFE ch, 448 kbps
Релиз-группа:

Доп. информация: перевод доступен благодаря: Zaborik. Работа со звуком и постер от mihaildns.


Общее
Уникальный идентификатор : 184435748136489539813649783322180769242 (0x8AC10873AE59599B8CA256D84002D5DA)
Полное имя : D:\VIDEO\Мои переводы\In the Line of Fire.1993.BDRip-AVC.Kyberpunk.mkv
Формат : Matroska
Версия формата : Version 4 / Version 2
Размер файла : 1,39 Гбайт
Продолжительность : 2 ч. 8 м.
Общий поток : 1547 Кбит/сек
Дата кодирования : UTC 2017-11-24 11:04:50
Программа кодирования : mkvmerge v14.0.0 ('Flow') 64bit
Библиотека кодирования : libebml v1.3.4 + libmatroska v1.4.5

Видео
Идентификатор : 1
Формат : AVC
Формат/Информация : Advanced Video Codec
Профиль формата :
Параметр CABAC формата : Да
Параметр RefFrames формата : 8 кадров
Идентификатор кодека : V_MPEG4/ISO/AVC
Продолжительность : 2 ч. 8 м.
Битрейт : 1098 Кбит/сек
Ширина : 1088 пикселей
Высота : 452 пикселя
Соотношение сторон : 2,40:1
Режим частоты кадров : Постоянный
Частота кадров : 23,976 (24000/1001) кадра/сек
Цветовое пространство : YUV
Субдискретизация насыщенности : 4:2:0
Битовая глубина : 8 бит
Тип развёртки : Прогрессивная
Бит/(Пиксели*Кадры) : 0.093
Размер потока : 1010 Мбайт (71%)
Библиотека кодирования : x264 core 125 r2200 999b753
Настройки программы : cabac=1 / ref=8 / deblock=1:-2:-1 / analyse=0x3:0x133 / me=umh / subme=9 / psy=1 / psy_rd=1.00:0.00 / mixed_ref=1 / me_range=16 / chroma_me=1 / trellis=2 / 8x8dct=1 / cqm=0 / deadzone=21,11 / fast_pskip=1 / chroma_qp_offset=-2 / threads=3 / lookahead_threads=1 / sliced_threads=0 / nr=0 / decimate=1 / interlaced=0 / bluray_compat=0 / constrained_intra=0 / bframes=3 / b_pyramid=2 / b_adapt=2 / b_bias=0 / direct=3 / weightb=1 / open_gop=0 / weightp=2 / keyint=240 / keyint_min=23 / scenecut=40 / intra_refresh=0 / rc_lookahead=60 / rc=2pass / mbtree=1 / bitrate=1098 / ratetol=1.0 / qcomp=0.60 / qpmin=10 / qpmax=51 / qpstep=4 / cplxblur=20.0 / qblur=0.5 / vbv_maxrate=50000 / vbv_bufsize=50000 / nal_hrd=none / ip_ratio=1.40 / aq=1:1.00
Default : Нет
Forced : Нет

Аудио
Идентификатор : 2
Формат : AC-3
Формат/Информация : Audio Coding 3
Параметр Endianness формата : Big
Идентификатор кодека : A_AC3
Продолжительность : 2 ч. 8 м.
Вид битрейта : Постоянный
Битрейт : 448 Кбит/сек
Каналы : 6 каналов
Расположение каналов : Front: L C R, Side: L R, LFE
Частота : 48,0 КГц
Частота кадров : 31,250 кадров/сек (1536 SPF)
Битовая глубина : 16 бит
Метод сжатия : С потерями
Размер потока : 412 Мбайт (29%)
Заголовок : Перевод М.Яроцкого
Язык : Russian
ServiceKind/String : Complete Main
Default : Да
Forced : Нет

Меню #1
00:00:00.054 : en:00:00:00.054 / en:00:00:00.054 / en:00:00:00.054 / en:00:00:00.054

Меню #2
00:00:00.097 : en:00:00:00.097










   Похожие торренты   Торрент   Размер 
В этой теме нет новых непрочитанных сообщений. На линии огня / In The Line Of Fire (1993) Blu-ray CEE 1080p | D

8 | 8

34.73 ГБ

В этой теме нет новых непрочитанных сообщений. На линии огня / In The Line Of Fire (1993) BDRip от Dalemake | D, P

17 | 0

1.46 ГБ

В этой теме нет новых непрочитанных сообщений. На линии огня / In the Line of Fire (1993) BDRip 720p от NNNB | D, P, A

5 | 0

7.75 ГБ

В этой теме нет новых непрочитанных сообщений. Инферно / Inferno (Рон Ховард ) [2016, боевик, триллер, драма, криминал, детектив , HDRip-AVC] DUB

12 | 3

2.18 ГБ

В этой теме нет новых непрочитанных сообщений. Револьвер / Revolver (Гай Ричи) [2005, боевик, триллер, драма, криминал, детектив, HDRip] DVO

0 | 0

1.46 ГБ

В этой теме нет новых непрочитанных сообщений. Пaссажир / The Cоmmuter (Жаума Кольет-Серра) [2018, боевик, триллер, драма, криминал, детектив, HDRip] DUB

207 | 10

1.4 ГБ

В этой теме нет новых непрочитанных сообщений. Долгий поцелуй на ночь / The Long Kiss Goodnight (Ренни Харлин) [1996, боевик, триллер, драма, криминал, детектив, HDRip] MVO / Боевики /Action

10 | 0

1.46 ГБ




Вы не можете начинать темы
Вы не можете отвечать на сообщения
Вы не можете редактировать свои сообщения
Вы не можете удалять свои сообщения
Вы не можете добавлять вложения

Перейти:  
 Вход
ppkBB3cker v.2 © 2008-2014 @ PPK
[ Time : 0.024s | 16 Queries | GZIP : Off ]

cron