img image001 image001 image001 image001 image001 image001 image001 image001 image001 image001 image001 image001 image001 image001 image001 image001

Planets Sun Sun Sun
Статистика раздачи
Автор: Снежана | Размер: 1.48 ГБ | Добавлен: 19 фев 2018
Раздают: 11    Качают: 9
Скачать торрент
Скачать торрент
Описание торрента

СообщениеДобавлено: 19 фев 2018 

Субурбикон / Suburbicon


Перевод: Авторский (одноголосый) М.Яроцкий, субтитры: отсутствуют
Формат: HDRip-AVC, MKV, H.264, AC3
Страна: США
Режиссер: Джордж Клуни
Жанр: Триллер, драма, криминал, детектив
Продолжительность: 01:45:02
Год выпуска: 2017

В ролях: Мэтт Дэймон, Джулианна Мур, Оскар Айзек, Ноа Джуп, Гленн Флешлер, Меган Фергюсон, Джек Конли, Гэри Басараба, Майкл Коэн, Стив Монро

Описание: Добро пожаловать в солнечный Субурбикон! В прекрасный тихий городок в самом сердце Америки. Счастливые семьи. Недорогие миленькие дома. Ухоженные газоны. Воплощение американской мечты. Чудесную жизнь городка внезапно прерывает шокирующее, из ряда вон выходящее событие — образцовая семья переживает вторжение в их семейное гнёздышко. Это событие толкает на худшие поступки в их идиллической жизни — шантаж, месть и предательство.



Видео: 1024x428 (2,40:1), 23,976 fps, MPEG4 AVC (x264), ~1572 kbps avg, 0.150 bit/pixel
Аудио: 48 kHz, AC3 Dolby Digital, 3/2 (L,C,R) + L R, LFE ch, 448 kbps
Релиз-группа:

Доп. информация: перевод доступен благодаря: braindrill. Работа со звуком Переводман.


Общее
Уникальный идентификатор : 212331886030009680875388168585586747574 (0x9FBDA23D227B1142BE2D2E4F75A928B6)
Полное имя : D:\VIDEO\Мои переводы\Suburbicon.2017.x264.BDRip.Kyberpunk.mkv
Формат : Matroska
Версия формата : Version 4 / Version 2
Размер файла : 1,48 Гбайт
Продолжительность : 1 ч. 45 м.
Общий поток : 2022 Кбит/сек
Название фильма : WWW.PEREVODMAN.COM
Дата кодирования : UTC 2018-01-30 12:09:02
Программа кодирования : mkvmerge v6.0.0 ('Coming Up For Air') built on Jan 20 2013 09:52:00
Библиотека кодирования : libebml v1.3.0 + libmatroska v1.4.0
Обложка : Yes
Attachments : cover.jpg

Видео
Идентификатор : 1
Формат : AVC
Формат/Информация : Advanced Video Codec
Профиль формата :
Параметр CABAC формата : Да
Параметр RefFrames формата : 12 кадров
Идентификатор кодека : V_MPEG4/ISO/AVC
Продолжительность : 1 ч. 45 м.
Битрейт : 1572 Кбит/сек
Ширина : 1024 пикселя
Высота : 428 пикселей
Соотношение сторон : 2,40:1
Режим частоты кадров : Постоянный
Частота кадров : 23,976 (23976/1000) кадра/сек
Цветовое пространство : YUV
Субдискретизация насыщенности : 4:2:0
Битовая глубина : 8 бит
Тип развёртки : Прогрессивная
Бит/(Пиксели*Кадры) : 0.150
Размер потока : 1,13 Гбайт (76%)
Библиотека кодирования : x264 core 152 r2851 ba24899
Настройки программы : cabac=1 / ref=12 / deblock=1:-2:-2 / analyse=0x3:0x113 / me=umh / subme=11 / psy=1 / psy_rd=1.00:0.05 / mixed_ref=1 / me_range=32 / chroma_me=1 / trellis=2 / 8x8dct=1 / cqm=0 / deadzone=21,11 / fast_pskip=0 / chroma_qp_offset=-3 / threads=12 / lookahead_threads=3 / sliced_threads=0 / nr=0 / decimate=0 / interlaced=0 / bluray_compat=0 / constrained_intra=0 / bframes=14 / b_pyramid=2 / b_adapt=2 / b_bias=0 / direct=3 / weightb=1 / open_gop=0 / weightp=2 / keyint=240 / keyint_min=23 / scenecut=40 / intra_refresh=0 / rc_lookahead=40 / rc=2pass / mbtree=0 / bitrate=1572 / ratetol=1.0 / qcomp=0.60 / qpmin=0 / qpmax=51 / qpstep=4 / cplxblur=20.0 / qblur=0.5 / vbv_maxrate=50000 / vbv_bufsize=62500 / nal_hrd=none / filler=0 / ip_ratio=1.25 / pb_ratio=1.30 / aq=3:0.90
Язык : English
Default : Да
Forced : Нет
Цветовой диапазон : Limited
Основные цвета : BT.709
Характеристики трансфера : BT.709
Коэффициенты матрицы : BT.709

Аудио
Идентификатор : 2
Формат : AC-3
Формат/Информация : Audio Coding 3
Параметр Endianness формата : Big
Идентификатор кодека : A_AC3
Продолжительность : 1 ч. 45 м.
Вид битрейта : Постоянный
Битрейт : 448 Кбит/сек
Каналы : 6 каналов
Расположение каналов : Front: L C R, Side: L R, LFE
Частота : 48,0 КГц
Частота кадров : 31,250 кадров/сек (1536 SPF)
Битовая глубина : 16 бит
Метод сжатия : С потерями
Размер потока : 337 Мбайт (22%)
Заголовок : AVO Kyberpunk
Язык : Russian
ServiceKind/String : Complete Main
Default : Да
Forced : Нет










   Похожие торренты   Торрент   Размер 
В этой теме нет новых непрочитанных сообщений. Субурбикон / Suburbicon (2017) HDRip | iTunes

0 | 0

2.04 ГБ

В этой теме нет новых непрочитанных сообщений. Чёрный снег / Nieve negra (Мартин Ходара) [2017, триллер, драма, криминал, детектив, HDRip] AVO

4 | 0

1.34 ГБ

В этой теме нет новых непрочитанных сообщений. Субурбикон / Suburbicon (2017) CAMRip | D

885 | 53

1.36 ГБ

В этой теме нет новых непрочитанных сообщений. Субурбикон / Suburbicon (2017) BDRip | A

57 | 9

2.18 ГБ

В этой теме нет новых непрочитанных сообщений. Субурбикон / Suburbicon (2017) BDRip-AVC от HELLYWOOD | iTunes

0 | 0

2.13 ГБ

В этой теме нет новых непрочитанных сообщений. Субурбикон / Suburbicon (2017) BDRip от MegaPeer | iTunes

33 | 3

745.47 МБ

В этой теме нет новых непрочитанных сообщений. Субурбикон / Suburbicon (2017) BDRip от MegaPeer | iTunes

1992 | 153

1.41 ГБ




Вы не можете начинать темы
Вы не можете отвечать на сообщения
Вы не можете редактировать свои сообщения
Вы не можете удалять свои сообщения
Вы не можете добавлять вложения

Перейти:  
 Вход
ppkBB3cker v.2 © 2008-2014 @ PPK
[ Time : 0.038s | 16 Queries | GZIP : Off ]

cron