img image001 image001 image001 image001 image001 image001 image001 image001 image001 image001 image001 image001 image001 image001 image001 image001

Planets Sun Sun Sun
Статистика раздачи
Автор: Снежана | Размер: 1.45 ГБ | Добавлен: 19 фев 2018
Раздают: 2    Качают: 0
Скачать торрент
Скачать торрент
Описание торрента

СообщениеДобавлено: 19 фев 2018 

По пятам 2 / Hong yi xiao nu hai 2


Перевод: Любительский (многоголосый закадровый) [КОЛОБОК], субтитры: отсутствуют
Формат: HDRip-AVC, MKV, H.264, AC3
Страна: Тайвань
Режиссер: Чэн Вэйхао
Жанр: ужасы, триллер
Продолжительность: 01:48:12
Год выпуска: 2017
В ролях: Рэйни Ян, Тиффани Сюй, Франческа Као, Лун Шаохуа, Ривер Хуан, Тен-Хю Хуан, Лю Иньшан

Описание: Соцработница Ли Шуфэн приходит проверить условия жизни маленькой девочки и обнаруживает её мать в слегка неадекватном состоянии, а самого ребёнка — запертым в маленькой комнате и изрисованным какими-то знаками. Девочку забирают в специальный садик, но она не горит желанием расставаться с мамой, чего-то боится и сама начинает писать на руках символы. У самой Шуфэн ситуация дома тоже не из простых — несовершеннолетняя дочь беременна, и та склоняет её к аборту. Поссорившись, мать и дочь расстаются возле школы, а вечером девушка не возвращается домой. Камеры наблюдения засняли, как она уходит в лес, как-будто ведомая кем-то невидимым.



Видео: 1024x432 (2.40:1), 23,976 fps, AVC MPEG-4 (x264), , ~ 1694 kb/s, 0.160 bit/pixel
Аудио: 48 kHz, AC3 Dolby Digital, 2/0 (L,R) ch, ~192 kbps

Доп. информация: Присутствует реклама!
General
Unique ID : 185521666147545640575614311322376180020 (0x8B922C57EC9919D703CA5B479A579134)
Complete name : C:\Users\Юрик\Downloads\The.Tag-Along.2.2017_[tfile.ru].mkv
Format : Matroska
Format version : Version 2
File size : 1.45 GiB
Duration : 1 h 48 min
Overall bit rate : 1 924 kb/s
Writing application : Lavf55.12.100
Writing library : Lavf55.12.100

Video
ID : 2
Format : AVC
Format/Info : Advanced Video Codec
Format profile :
Format settings, CABAC : Yes
Format settings, RefFrames : 2 frames
Codec ID : V_MPEG4/ISO/AVC
Duration : 1 h 48 min
Bit rate : 1 694 kb/s
Width : 1 024 pixels
Height : 432 pixels
Display aspect ratio : 2.40:1
Frame rate mode : Constant
Frame rate : 23.976 (24000/1001) FPS
Color space : YUV
Chroma subsampling : 4:2:0
Bit depth : 8 bits
Scan type : Progressive
Bits/(Pixel*Frame) : 0.160
Stream size : 1.28 GiB (88%)
Default : Yes
Forced : No
Statistics Tags Issue : mkvmerge v7.4.0 ('Circles') 64bit built on Dec 12 2014 12:19:56 2018-02-16 10:06:01 / Lavf55.12.100
FromStats_BitRate : 5968926
FromStats_Duration : 01:48:12.486000000
FromStats_FrameCount : 155664
FromStats_StreamSize : 4844146550

Audio
ID : 1
Format : AC-3
Format/Info : Audio Coding 3
Format settings, Endianness : Big
Codec ID : A_AC3
Duration : 1 h 48 min
Bit rate mode : Constant
Bit rate : 192 kb/s
Channel(s) : 2 channels
Channel positions : Front: L R
Sampling rate : 48.0 kHz
Frame rate : 31.250 FPS (1536 SPF)
Bit depth : 16 bits
Compression mode : Lossy
Stream size : 149 MiB (10%)
Service kind : Complete Main
Default : Yes
Forced : No
Statistics Tags Issue : mkvmerge v7.4.0 ('Circles') 64bit built on Dec 12 2014 12:19:56 2018-02-16 10:06:01 / Lavf55.12.100
FromStats_BitRate : 192000
FromStats_Duration : 01:48:12.512000000
FromStats_FrameCount : 202891
FromStats_StreamSize : 155820288















   Похожие торренты   Торрент   Размер 
В этой теме нет новых непрочитанных сообщений. Небесный ястреб / The Skyhawk / Huang Fei-hong xiao lin quan (1974) DVD5 | A

1 | 4

4.21 ГБ

В этой теме нет новых непрочитанных сообщений. # Ужасы / # Horror (Тара Сабкофф) [2015, ужасы, триллер, драма, детектив, HDRip] AVO

87 | 22

744.62 МБ

В этой теме нет новых непрочитанных сообщений. Прочь / Get Out (Джордан Пил) [2017, ужасы, триллер, детектив, HDRip] DUB / Мистика

149 | 7

1.45 ГБ

В этой теме нет новых непрочитанных сообщений. Обещание / The Promise (Сопон Сукдаписит) [2017, ужасы, триллер, драма, HDRip] MVO

2 | 10

1.44 ГБ

В этой теме нет новых непрочитанных сообщений. Дикая история / El bar (Алекс де ла Иглесиа) [2017, ужасы, триллер, комедия, HDRip] MVO

84 | 0

1.37 ГБ

В этой теме нет новых непрочитанных сообщений. Дикая история / El bar (Алекс де ла Иглесиа) [2017, ужасы, триллер, комедия, HDRip] MVO

8 | 0

1.39 ГБ

В этой теме нет новых непрочитанных сообщений. Дикая история / El bar (Алекс де ла Иглесиа) [2017, ужасы, триллер, комедия, HDRip] MVO

17 | 1

1.46 ГБ




Вы не можете начинать темы
Вы не можете отвечать на сообщения
Вы не можете редактировать свои сообщения
Вы не можете удалять свои сообщения
Вы не можете добавлять вложения

Перейти:  
 Вход
ppkBB3cker v.2 © 2008-2014 @ PPK
[ Time : 0.024s | 17 Queries | GZIP : Off ]

cron