img image001 image001 image001 image001 image001 image001 image001 image001 image001 image001 image001 image001 image001 image001 image001 image001

Planets Sun Sun Sun
Статистика раздачи
Автор: Снежана | Размер: 2.49 ГБ | Добавлен: 15 фев 2018
Раздают: 0    Качают: 3
Скачать торрент
Скачать торрент
Описание торрента

СообщениеДобавлено: 15 фев 2018 

Горные лыжи. Кубок мира 2017–2018. Бивер-Крик (США). Мужчины. Гигантский слалом


Перевод: Русский, cубтитры: отсутствуют
Формат: HDTVRip 720р, MKV, H.264, AC3
Страна: США
Вид спорта: Горные лыжи
Продолжительность: 01:55:50
Дата эфира: 03.12.2017

Комментатор: Владимир Андреев

Описание: 03 декабря 2017 года, воскресенье. 19:45 МСК
Этап Кубка мира по горнолыжному спорту сезона 2017-2018 года
Бивер-Крик (США).
Мужчины. Гигантский слалом. 1-я и 2-я попытка


Видео: 1280x720 (16:9), 50,000 fps, AVC (х264), , 2816 Кбит/сек, ~ 0.061 bit/pixel
Аудио #1: Русский 48 kHz, AC3 Dolby Digital, 2/0 (L,R) ch, ~128.00 kbps avg
Аудио #2: Английский 48 kHz, AC3 Dolby Digital, 2/0 (L,R) ch, ~128.00 kbps avg

Общее
Уникальный идентификатор : 224786535148032345512377947856477229909 (0xA91C4FD992EE14BE840CFCB47E921355)
Полное имя : F:\SPORT\Горные лыжи\(03.12.2017)_FIS Alpine Ski 6Ev. WC 2017-2018.Beaver Creek(USA). M_Giant Slalom_720p.mkv
Формат : Matroska
Версия формата : Version 4 / Version 2
Размер файла : 2,49 Гбайт
Продолжительность : 1 ч. 55 м.
Общий поток : 3076 Кбит/сек
Дата кодирования : UTC 2017-12-05 13:09:46
Программа кодирования : mkvmerge v18.0.0 ('Apricity') 32-bit
Библиотека кодирования : libebml v1.3.5 + libmatroska v1.4.8

Видео
Идентификатор : 1
Формат : AVC
Формат/Информация : Advanced Video Codec
Профиль формата :
Настройки формата : CABAC / 4 Ref Frames
Параметр CABAC формата : Да
Параметр RefFrames формата : 4 кадра
Идентификатор кодека : V_MPEG4/ISO/AVC
Продолжительность : 1 ч. 55 м.
Битрейт : 2816 Кбит/сек
Ширина : 1280 пикселей
Высота : 720 пикселей
Соотношение сторон : 16:9
Режим частоты кадров : Постоянный
Частота кадров : 50,000 кадров/сек
Цветовое пространство : YUV
Субдискретизация насыщенности : 4:2:0
Битовая глубина : 8 бит
Тип развёртки : Прогрессивная
Бит/(Пиксели*Кадры) : 0.061
Размер потока : 2,28 Гбайт (92%)
Default : Да
Forced : Нет

Аудио #1
Идентификатор : 2
Формат : AC-3
Формат/Информация : Audio Coding 3
Параметр Endianness формата : Big
Идентификатор кодека : A_AC3
Продолжительность : 1 ч. 55 м.
Вид битрейта : Постоянный
Битрейт : 128 Кбит/сек
Каналы : 2 канала
Расположение каналов : Front: L R
Частота : 48,0 КГц
Частота кадров : 31,250 кадров/сек (1536 SPF)
Битовая глубина : 16 бит
Метод сжатия : С потерями
Размер потока : 106 Мбайт (4%)
Язык : Russian
ServiceKind/String : Complete Main
Default : Да
Forced : Нет

Аудио #2
Идентификатор : 3
Формат : AC-3
Формат/Информация : Audio Coding 3
Идентификатор кодека : A_AC3
Продолжительность : 1 ч. 55 м.
Битрейт : 128 Кбит/сек
Каналы : 2 канала
Частота : 48,0 КГц
Частота кадров : 31,247 кадров/сек (1536 SPF)
Метод сжатия : С потерями
Размер потока : 106 Мбайт (4%)
Язык : English
Default : Нет
Forced : Нет







   Похожие торренты   Торрент   Размер 
В этой теме нет новых непрочитанных сообщений. Горные лыжи. Кубок мира 2017–2018. Бивер-Крик (США). Мужчины. Гигантский слалом / Eurosport 1 HD [Горные лыжи, 03.12.2017, HDTV (1080i), RU]

0 | 0

3.48 ГБ

В этой теме нет новых непрочитанных сообщений. Горные лыжи. Кубок мира 2017–2018. Бивер-Крик (США). Мужчины. Супергигантский слалом / Eurosport 1 HD [Горные лыжи, 01.12.2017, HDTVRip (720р), RU]

0 | 0

1.6 ГБ

В этой теме нет новых непрочитанных сообщений. Горные лыжи. Кубок мира 2017–2018. Бивер-Крик (США). Мужчины. Супергигантский слалом / Eurosport 1 HD [Горные лыжи, 01.12.2017, HDTV (1080i), RU]

0 | 0

1.8 ГБ

В этой теме нет новых непрочитанных сообщений. Горные лыжи. Кубок мира 2017–2018. Валь дe Изер (Франция). Мужчины. Гигантский слалом / Eurosport 1 HD [Горные лыжи, 09.12.2017, HDTVRip (720р), RU]

0 | 0

1.8 ГБ

В этой теме нет новых непрочитанных сообщений. Горные лыжи. Кубок мира 2017–2018. Альта-Бадия (Италия). Мужчины. Гигантский слалом / Eurosport 1 HD [Горные лыжи, 17.12.2017, HDTVRip (720р), RU]

0 | 0

3.09 ГБ

В этой теме нет новых непрочитанных сообщений. Горные лыжи. Кубок мира 2017–2018. Альта-Бадия (Италия). Мужчины. Параллельный гигантский слалом / Eurosport 1 HD [Горные лыжи, 18.12.2017, WEB-DL (720р), RU]

0 | 0

1.47 ГБ

В этой теме нет новых непрочитанных сообщений. Горные лыжи. Кубок мира 2017–2018. Аделбоден (Швейцария). Мужчины. Гигантский слалом / Eurosport 1 HD [Горные лыжи, 06.01.2018, WEB-DL (720р), RU]

0 | 0

2.54 ГБ




Вы не можете начинать темы
Вы не можете отвечать на сообщения
Вы не можете редактировать свои сообщения
Вы не можете удалять свои сообщения
Вы не можете добавлять вложения

Перейти:  
 Вход
ppkBB3cker v.2 © 2008-2014 @ PPK
[ Time : 0.024s | 16 Queries | GZIP : Off ]

cron