img image001 image001 image001 image001 image001 image001 image001 image001 image001 image001 image001 image001 image001 image001 image001 image001

Planets Sun Sun Sun
Статистика раздачи
Автор: Nickolas3434 | Размер: 4.19 ГБ | Добавлен: 15 дек 2017
Раздают: 22    Качают: 0
Скачать торрент
Скачать торрент
Описание торрента

СообщениеДобавлено: 15 дек 2017 

Служили два товарища
Жанр: трагикомедия
Год выпуска: 1968
Режиссер: Евгений Карелов
В ролях: Олег Янковский, Ролан Быков, Владимир Высоцкий, Ия Саввина, Анатолий Папанов, Николай Крючков,
Петр Крылов, Б. Силантьев, Николай Бурляев, Алла Демидова, Ростислав Янковский, Роман Ткачук, Николай Дупак,
Валентина Березуцкая, Юозас Будрайтис, Николай Парфёнов, Вениамин Смехов, Юрий Кузьменков,
Татьяна Иваненко, Валентина Сперантова, Евгений Марков
Описание: Гражданская война. К красным попадает трофейный киноаппарат - новенький французский "Патэ".
Штаб решает использовать этот случай для аэросъемки вражеских укреплений. Бывший фотограф - солдат Андрей Некрасов - назначается кинооператором.
Под "надзором" Ивана Карякина, недавно разжалованного в рядовые за неуважение к воинской дисциплине,
Некрасов приступает к выполнению задания...
Доп. информация: По независимым опросам "Livejournal" и "Liveinternet" фильм вошёл в «100 лучших российских фильмов».
Сценарий: Юлий Дунский, Валерий Фрид
Операторы: Михаил Ардабьевский, Виктор Белокопытов
Композитор: Евгений Птичкин

Выпущено: СССР
Продолжительность: 01:33:00
Перевод: не требуется
Кодек: х264
Качество: WEB-DLRip 720p
Видео: MPEG-4 AVC, 1280x544, 25 fps, 5555 Кбит/с
Звук: AC3, 6 ch, 448 Кбит/с, AC3, 1 ch, 448 Кбит/с

    x264 [info]: frame I:688 Avg QP:18.10 size:110712
    x264 [info]: frame P:40806 Avg QP:20.25 size: 54577
    x264 [info]: frame B:98027 Avg QP:21.94 size: 16044
=================================================================
Общее
Уникальный идентификатор : 180565457068731201782121329389888205603 (0x87D7A45EA35E7F1697024BCBAB31F323)
Полное имя : D:Служили два товарища_1968-WEB-DLRip 720p.mkv
Формат : Matroska
Версия формата : Version 2
Размер файла : 4,19 Гбайт
Продолжительность : 1 ч. 33 м.
Общий поток : 6454 Кбит/сек
Дата кодирования : UTC 2017-04-03 01:32:38
Программа кодирования : mkvmerge v5.8.0 ('No Sleep / Pillow') built on Sep 2 2012 15:37:04
Библиотека кодирования : libebml v1.2.3 + libmatroska v1.3.0
Видео
Идентификатор : 1
Формат : AVC
Формат/Информация : Advanced Video Codec
Профиль формата : High@L4.1
Параметр CABAC формата : Да
Параметр ReFrames формата : 12 кадров
Идентификатор кодека : V_MPEG4/ISO/AVC
Продолжительность : 1 ч. 33 м.
Битрейт : 5555 Кбит/сек
Ширина : 1280 пикселей
Высота : 544 пикселя
Соотношение сторон : 2,35:1
Режим частоты кадров : Постоянный
Частота кадров : 25,000 кадров/сек
Цветовое пространство : YUV
Субдискретизация насыщенности : 4:2:0
Битовая глубина : 8 бит
Тип развёртки : Прогрессивная
Бит/(Пиксели*Кадры) : 0.319
Размер потока : 3,53 Гбайт (84%)
Заголовок : korsar.tv
Библиотека кодирования : x264 core 148 r2744kMod b97ae06
Настройки программы : cabac=1 / ref=12 / deblock=1:-2:-1 / analyse=0x3:0x113 / me=umh / subme=10 / psy=1 / fade_compensate=0.00 / psy_rd=1.05:0.05 / mixed_ref=1 / me_range=32 / chroma_me=1 / trellis=2 / 8x8dct=1 / cqm=0 / deadzone=21,11 / fast_pskip=0 / chroma_qp_offset=-3 / threads=12 / lookahead_threads=3 / sliced_threads=0 / nr=0 / decimate=0 / interlaced=0 / bluray_compat=0 / constrained_intra=0 / bframes=10 / b_pyramid=2 / b_adapt=2 / b_bias=0 / direct=3 / weightb=1 / open_gop=0 / weightp=2 / keyint=250 / keyint_min=25 / scenecut=40 / intra_refresh=0 / rc=2pass / mbtree=0 / bitrate=5555 / ratetol=1.0 / qcomp=0.63 / qpmin=0 / qpmax=39 / qpstep=4 / cplxblur=20.0 / qblur=0.5 / ip_ratio=1.25 / pb_ratio=1.30 / aq=2:0.70
Язык : English
Default : Да
Forced : Нет
Цветовой диапазон : Limited
Основные цвета : BT.709
Характеристики трансфера : BT.709
Коэффициенты матрицы : BT.709
Аудио #1
Идентификатор : 2
Формат : AC-3
Формат/Информация : Audio Coding 3
Расширение режима : CM
Параметр Endianness формата : Big
Идентификатор кодека : A_AC3
Продолжительность : 1 ч. 33 м.
Вид битрейта : Постоянный
Битрейт : 448 Кбит/сек
Каналы : 6 каналов
Расположение каналов : Front: L C R, Side: L R, LFE
Частота : 48,0 КГц
Частота кадров : 31,250 кадров/сек (1536 spf)
Битовая глубина : 16 бит
Метод сжатия : С потерями
Задержка видео : 1 с. 595 мс.
Размер потока : 298 Мбайт (7%)
Язык : Russian
Default : Да
Forced : Нет
Аудио #2
Идентификатор : 3
Формат : AC-3
Формат/Информация : Audio Coding 3
Расширение режима : CM
Параметр Endianness формата : Big
Идентификатор кодека : A_AC3
Продолжительность : 1 ч. 33 м.
Вид битрейта : Постоянный
Битрейт : 448 Кбит/сек
Каналы : 1 канал
Расположение каналов : Front: C
Частота : 48,0 КГц
Частота кадров : 31,250 кадров/сек (1536 spf)
Битовая глубина : 16 бит
Метод сжатия : С потерями
Задержка видео : 1 с. 596 мс.
Размер потока : 298 Мбайт (7%)
Язык : Russian
Default : Нет
Forced : Нет
Меню
00:00:00.000 : en:Chapter 1
00:05:34.800 : en:Chapter 2
00:10:59.400 : en:Chapter 3
00:13:30.000 : en:Chapter 4
00:19:55.800 : en:Chapter 5
00:25:58.200 : en:Chapter 6
00:32:47.400 : en:Chapter 7
00:39:34.200 : en:Chapter 8
00:43:46.200 : en:Chapter 9
00:47:34.800 : en:Chapter 10
00:56:01.800 : en:Chapter 11
01:02:21.000 : en:Chapter 12
01:09:46.800 : en:Chapter 13
01:15:00.600 : en:Chapter 14
01:20:13.200 : en:Chapter 15
01:23:58.200 : en:Chapter 16




   Похожие торренты   Торрент   Размер 
В этой теме нет новых непрочитанных сообщений. Жуков и Рокоссовский. Служили два товарища (2015) SATRip от Generalfilm

584 | 15

485.34 МБ

В этой теме нет новых непрочитанных сообщений. Паша / Босс / Le pacha (1968) BDRip 720p от KORSAR | P, А

4 | 1

3.91 ГБ

В этой теме нет новых непрочитанных сообщений. Уилл Пэнни / Will Penny (1968) WEBRip 720p от KORSAR | P, A

8 | 3

5 ГБ

В этой теме нет новых непрочитанных сообщений. Новые приключения неуловимых (1968) WEBRip 720p от KORSAR

54 | 0

4.12 ГБ

В этой теме нет новых непрочитанных сообщений. Виринея (1968) DVDRip-AVC ОТ KORSAR

7 | 0

1.67 ГБ

В этой теме нет новых непрочитанных сообщений. Братья Карамазовы (1968) DVDRip-AVC от KORSAR

27 | 0

4.15 ГБ

В этой теме нет новых непрочитанных сообщений. Босс / Le pacha (1968) BDRip 1080р от KORSAR | P, A

9 | 1

6.5 ГБ




Вы не можете начинать темы
Вы не можете отвечать на сообщения
Вы не можете редактировать свои сообщения
Вы не можете удалять свои сообщения
Вы не можете добавлять вложения

Перейти:  
 Вход
ppkBB3cker v.2 © 2008-2014 @ PPK
[ Time : 0.017s | 15 Queries | GZIP : Off ]

cron