img image001 image001 image001 image001 image001 image001 image001 image001 image001 image001 image001 image001 image001 image001 image001 image001

Planets Sun Sun Sun
Статистика раздачи
Автор: Nickolas3434 | Размер: 8.23 ГБ | Добавлен: 12 дек 2017
Раздают: 88    Качают: 21
Скачать торрент
Скачать торрент
Описание торрента

СообщениеДобавлено: 12 дек 2017 

Информация о фильме
Название: Ужас Амитивилля: Пробуждение
Оригинальное название: Amityville: The Awakening
Год выхода: 2017
Жанр: Ужасы, триллер
Режиссер: Франк Халфун
В ролях: Белла Торн, Кэмерон Монахэн, Дженнифер Джейсон Ли, Маккенна Грэйс, Дженнифер Моррисон, Томас Манн, Кертвуд Смит, Тейлор Спрейтлер, Ава Сантана, Хантер Голигоски
О фильме:
Мать-одиночка переезжает с тремя детьми в загадочный дом, даже не подозревая о кровавом прошлом их нового жилища. У каждого дома есть история. У этого — страшная тайна.

Страна: США
Студия: Blumhouse Productions, Dimension Films, Miramax, Panic Ventures
Продолжительность: 01:27:04
Перевод: Дублированный | Лицензия
Файл
Качество: BDRip 1080p
Видео: MPEG-4 AVC, 1920x816, 9870 Mbit/s, 23.976 fps
Звук:
Аудио #01: 48 kHz, DTS, 5.1, 1510 Kbps | Дублированный | RUS |
Аудио #02: 48 kHz, AC3, 5.1, 640 Kbps | Дублированный | iTunes | RUS |
Аудио #03: 48 kHz, DTS, 5.1, 1510 Kbps | Оригинал | ENG |
Субтитры: Английские

General
Unique ID : 199607168590773359861445640096263964585 (0x962AF13B3FFB5FAA99BC5FC9763007A9)
Complete name : G:VideoSSDAmityville.The.Awakening.2017.D.BDRip.1080p.ExKinoRay.mkv
Format : Matroska
Format version : Version 4 / Version 2
File size : 8.23 GiB
Duration : 1 h 27 min
Overall bit rate : 13.5 Mb/s
Movie name : Amityville The Awakening 2017 from ExKinoRay
Encoded date : UTC 2017-12-10 21:01:14
Writing application : mkvmerge v18.0.0 ('Apricity') 64-bit
Writing library : libebml v1.3.5 + libmatroska v1.4.8
Video
ID : 1
Format : AVC
Format/Info : Advanced Video Codec
Format profile : High@L4.1
Format settings : CABAC / 5 Ref Frames
Format settings, CABAC : Yes
Format settings, RefFrames : 5 frames
Codec ID : V_MPEG4/ISO/AVC
Duration : 1 h 27 min
Bit rate : 9 870 kb/s
Width : 1 920 pixels
Height : 816 pixels
Display aspect ratio : 2.35:1
Frame rate mode : Constant
Frame rate : 23.976 (24000/1001) FPS
Color space : YUV
Chroma subsampling : 4:2:0
Bit depth : 8 bits
Scan type : Progressive
Bits/(Pixel*Frame) : 0.263
Stream size : 6.00 GiB (73%)
Writing library : x264 core 148 r2705 3f5ed56
Encoding settings : cabac=1 / ref=5 / deblock=1:-2:-2 / analyse=0x3:0x133 / me=umh / subme=11 / psy=1 / psy_rd=1.05:0.05 / mixed_ref=1 / me_range=32 / chroma_me=1 / trellis=2 / 8x8dct=1 / cqm=0 / deadzone=21,11 / fast_pskip=0 / chroma_qp_offset=-3 / threads=24 / lookahead_threads=4 / sliced_threads=0 / nr=0 / decimate=0 / interlaced=0 / bluray_compat=0 / constrained_intra=0 / bframes=8 / b_pyramid=2 / b_adapt=2 / b_bias=0 / direct=3 / weightb=1 / open_gop=0 / weightp=2 / keyint=240 / keyint_min=23 / scenecut=40 / intra_refresh=0 / rc_lookahead=50 / rc=2pass / mbtree=0 / bitrate=9870 / ratetol=1.0 / qcomp=0.60 / qpmin=0 / qpmax=69 / qpstep=4 / cplxblur=20.0 / qblur=0.5 / vbv_maxrate=50000 / vbv_bufsize=62500 / nal_hrd=none / filler=0 / ip_ratio=1.40 / pb_ratio=1.30 / aq=3:0.80
Language : English
Default : Yes
Forced : No
Audio #1
ID : 2
Format : DTS
Format/Info : Digital Theater Systems
Mode : 16
Format settings, Endianness : Big
Codec ID : A_DTS
Duration : 1 h 27 min
Bit rate mode : Constant
Bit rate : 1 509 kb/s
Channel(s) : 6 channels
Channel positions : Front: L C R, Side: L R, LFE
Sampling rate : 48.0 kHz
Frame rate : 93.750 FPS (512 SPF)
Bit depth : 24 bits
Compression mode : Lossy
Stream size : 939 MiB (11%)
Title : Dub [License]
Language : Russian
Default : Yes
Forced : No
Audio #2
ID : 3
Format : AC-3
Format/Info : Audio Coding 3
Format settings, Endianness : Big
Codec ID : A_AC3
Duration : 1 h 27 min
Bit rate mode : Constant
Bit rate : 640 kb/s
Channel(s) : 6 channels
Channel positions : Front: L C R, Side: L R, LFE
Sampling rate : 48.0 kHz
Frame rate : 31.250 FPS (1536 SPF)
Bit depth : 16 bits
Compression mode : Lossy
Stream size : 398 MiB (5%)
Title : Dub [License]
Language : Russian
Service kind : Complete Main
Default : No
Forced : No
Audio #3
ID : 4
Format : DTS
Format/Info : Digital Theater Systems
Mode : 16
Format settings, Endianness : Big
Codec ID : A_DTS
Duration : 1 h 27 min
Bit rate mode : Constant
Bit rate : 1 509 kb/s
Channel(s) : 6 channels
Channel positions : Front: L C R, Side: L R, LFE
Sampling rate : 48.0 kHz
Frame rate : 93.750 FPS (512 SPF)
Bit depth : 24 bits
Compression mode : Lossy
Stream size : 940 MiB (11%)
Title : Original
Language : English
Default : No
Forced : No
Text
ID : 5
Format : UTF-8
Codec ID : S_TEXT/UTF8
Codec ID/Info : UTF-8 Plain Text
Duration : 1 h 25 min
Bit rate : 48 b/s
Count of elements : 1229
Stream size : 30.4 KiB (0%)
Title : SDH
Language : English
Default : No
Forced : No
Menu
00:00:00.000 : en:Chapter 1
00:01:37.430 : en:Chapter 2
00:06:23.883 : en:Chapter 3
00:11:18.719 : en:Chapter 4
00:17:59.995 : en:Chapter 5
00:23:22.192 : en:Chapter 6
00:29:34.522 : en:Chapter 7
00:34:45.291 : en:Chapter 8
00:39:14.060 : en:Chapter 9
00:45:24.972 : en:Chapter 10
00:49:53.740 : en:Chapter 11
00:55:09.014 : en:Chapter 12
01:00:30.001 : en:Chapter 13
01:07:06.105 : en:Chapter 14
01:14:40.142 : en:Chapter 15
01:22:31.738 : en:Chapter 16

Релиз от: Автор релиза:
Подпишись на меня, кликни по картинке > :



   Похожие торренты   Торрент   Размер 
В этой теме нет новых непрочитанных сообщений. Ужас Амитивилля: Пробуждение / Amityville: The Awakening (2017) BDRip от ExKinoRay | Лицензия

58 | 3

1.45 ГБ

В этой теме нет новых непрочитанных сообщений. Ужас Амитивилля: Пробуждение / Amityville: The Awakening (2017) BDRemux 1080p от ExKinoRay | US Transfer | Лицензия

21 | 8

12.37 ГБ

В этой теме нет новых непрочитанных сообщений. Ужас Амитивилля: Пробуждение / Amityville: The Awakening (2017) BDRip 720p от ExKinoRay | Лицензия

74 | 9

4.2 ГБ

В этой теме нет новых непрочитанных сообщений. Ужас Амитивилля: Пробуждение / Amityville: The Awakening (2017) WEB-DL 1080p от ExKinoRay | iTunes

200 | 7

3.27 ГБ

В этой теме нет новых непрочитанных сообщений. Ужас Амитивилля: Пробуждение / Amityville: The Awakening (2017) Blu-ray 1080p | Rus Transfer | Лицензия

19 | 5

16.92 ГБ

В этой теме нет новых непрочитанных сообщений. Ужас Амитивилля: Пробуждение / Amityville: The Awakening (2017) BDRip от ExKinoRay | iTunes

99 | 0

1.41 ГБ

В этой теме нет новых непрочитанных сообщений. Ужас Амитивилля: Пробуждение / Amityville: The Awakening (2017) BDRip-AVC от HELLYWOOD | Лицензия

32 | 6

1.46 ГБ




Вы не можете начинать темы
Вы не можете отвечать на сообщения
Вы не можете редактировать свои сообщения
Вы не можете удалять свои сообщения
Вы не можете добавлять вложения

Перейти:  
 Вход
ppkBB3cker v.2 © 2008-2014 @ PPK
[ Time : 0.023s | 15 Queries | GZIP : Off ]

cron