img image001 image001 image001 image001 image001 image001 image001 image001 image001 image001 image001 image001 image001 image001 image001 image001

Planets Sun Sun Sun
Статистика раздачи
Автор: Снежана | Размер: 4.52 ГБ | Добавлен: 28 июл 2013
Раздают: 3    Качают: 9
Скачать торрент
Скачать торрент
Описание торрента

СообщениеДобавлено: 28 июл 2013 

#77

Год выпуска: 2008
Жанр: Pop, Disco
Продолжительность: 3ч. 4мин.

Участники: Ottawan, Юрий Антонов, Eruption, Ялла, BoneyM, Лев Лещенко, Вячеслав Добрынин, Teach-In, Игорь Николаев, Чингиз Хан, Александр Барыкин, Chilly, Baccara, Кар-Мэн, F.R.David, Веселые ребята, Fancy, Secret Service, Сергей Беликов, Albano, Русские, Sabrina, Олег Газманов, Gazebo, Маленький принц, C.C.Catch, Мурзилки Int., Цветы

Описание: 28 ноября в спорткомплексе «Олимпийский» при полном аншлаге – 25 тыс. зрителей! – прошел уже седьмой по счету музыкальный фестиваль «Авторадио». Девизом супершоу было: «The Best!», и эта «Дискотека 80-х» действительно стала лучшей за всю историю существования фестиваля.

Давая старт 4-часовому звездному марафону, президент «Авторадио» Александр Варин сказал: «Дискотека 80-х» – лучшая потому, что здесь лучшая музыка: самые любимые участники предыдущих фестивалей, самые долгожданные звезды, которые впервые выйдут на эту сцену. «Дискотека 80-х» лучшая потому, что здесь лучшие люди – Вы! Самые открытые, самые яркие, самые эмоциональные и самые громкие! 7-й Международный фестиваль «Авторадио» – «Дискотека 80-х – лучшая» объявляю открытой! Мы вместе!»

На сцене СК «Олимпийский» перед многотысячной аудиторией выступили самые яркие звезды эпохи диско: Ottawan, Fancy, Baccara, Teach-In, F.R.David, Eruption, Chilly, Sabrina, C.C.Catch, Boney M, Dschingighis Khan, а также Игорь Николаев, Александр Барыкин, Юрий Антонов, группы «Ялла», «Кар-Мэн» и многие другие. Такого еще не бывало никогда – на эту «Дискотеку» были приглашены 14 зарубежных исполнителей и коллективов! Всего на сцену 7-го фестиваля «Авторадио» вышли 29 звездных исполнителей.

Еще один сюрприз для зрителей – впервые на такой грандиозной сцене, вместе с мировой звездой Лиз Митчелл, спел обычный радиослушатель из города Кирова, Павел Кочетов. Павел заслужил это право, победив в многодневном музыкальном марафоне «Авторадио», в проекте «Новый герой», который предшествовал супершоу.

Качество: SATRip
Формат: MKV
Видео: MPEG4 Video (H264) 688x464 (751:464) 25.00fps
Аудио: MPEG Audio 48000Hz stereo

Video
ID : 1
Format : AVC
Format/Info : Advanced Video Codec
Format profile : High@L5.1
Format settings, CABAC : Yes
Format settings, ReFrames : 3 frames
Muxing mode : Container profile=Unknown@5.1
Codec ID : V_MPEG4/ISO/AVC
Duration : 3h 4mn
Bit rate : 3 237 Kbps
Width : 688 pixels
Height : 464 pixels
Display aspect ratio : 1.619
Original display aspect ratio : 1.618
Frame rate : 25.000 fps
Resolution : 24 bits
Colorimetry : 4:2:0
Scan type : Progressive
Bits/(Pixel*Frame) : 0.406
Stream size : 4.18 GiB (93%)
Writing library : x264 core 60 r900 a9af942

Audio
ID : 2
Format : MPEG Audio
Format version : Version 1
Format profile : Layer 2
Codec ID : A_MPEG/L2
Codec ID/Hint : MP2
Duration : 3h 4mn
Bit rate mode : Constant
Bit rate : 192 Kbps
Channel(s) : 2 channels
Sampling rate : 48.0 KHz
Resolution : 16 bits
Stream size : 254 MiB (5%)
Language : Russian













   Похожие торренты   Торрент   Размер 
В этой теме нет новых непрочитанных сообщений. VA-Авторадио. Дискотека в стиле 90х №3 (2014) МР3

610 | 184

690.8 МБ

В этой теме нет новых непрочитанных сообщений. Авторадио: Дискотека 80-х Топ 20 (2013) HDTV 720р

76 | 15

9.39 ГБ

В этой теме нет новых непрочитанных сообщений. Авторадио: Дискотека 80-х. Топ 20 [Потреково] (2013) HDTV 720р

63 | 152

8.88 ГБ

В этой теме нет новых непрочитанных сообщений. Новогодняя ДИСКОТЕКА 80-х от Авторадио (2015-2016) HDTVRip-AVC

792 | 54

2.11 ГБ

В этой теме нет новых непрочитанных сообщений. Дискотека 80-х Авторадио (2015-2016) HDTVRip от GeneralFilm

1422 | 66

2.91 ГБ

В этой теме нет новых непрочитанных сообщений. Дискотека 80-х от Авторадио [Полная версия] (2016) HDTV 1080i

9 | 2

19.66 ГБ

В этой теме нет новых непрочитанных сообщений. Дискотека 80-х от Авторадио [Полная версия] (2016) HDTV 720p

19 | 0

15.71 ГБ




Вы не можете начинать темы
Вы не можете отвечать на сообщения
Вы не можете редактировать свои сообщения
Вы не можете удалять свои сообщения
Вы не можете добавлять вложения

Перейти:  
 Вход
ppkBB3cker v.2 © 2008-2014 @ PPK
[ Time : 0.032s | 15 Queries | GZIP : Off ]

cron