img image001 image001 image001 image001 image001 image001 image001 image001 image001 image001 image001 image001 image001 image001 image001 image001

Planets Sun Sun Sun
Статистика раздачи
Автор: Nickolas3434 | Размер: 590.95 МБ | Добавлен: 10 янв 2018
Раздают: 3    Качают: 0
Скачать торрент
Скачать торрент
Описание торрента

СообщениеДобавлено: 10 янв 2018 

Исполнитель/Группа: Наташа Ранголи и группа Леди
Жанр: POP
Год выпуска: 2016
Продолжительность: 00:18:28
Наташа Ранголи-вокал
Сергей Ворожбит-руководитель, клавишные, гитара
DJ Катя-клавишные

Формат: MKV
Качество: CAMRip 720p
Видео кодек: H.264
Аудио кодек: AAC
Видео: H.264, ~4 300 Kbps, 1280 x 720 (16:9), 30 fps
Аудио: AAC, 48000Hz, 2ch, 192 kbps
1.На дискотеке
2.Снежный мальчик
3.Где же лето?
4.Октябрьский вечер(музыка и слова Сергея Воронкова)
5.Южный город
Complete name : D:Rangoli_2016.mkv
Format : Matroska
Format version : Version 4 / Version 2
File size : 591 MiB
Duration : 18 min 28 s
Overall bit rate : 4 471 kb/s
Encoded date : UTC 2018-01-08 22:46:04
Writing application : mkvmerge v8.3.0 ('Over the Horizon') 64bit
Writing library : libebml v1.3.1 + libmatroska v1.4.2

Video
ID : 1
Format : AVC
Format/Info : Advanced Video Codec
Format profile : Main@L4.1
Format settings, CABAC : Yes
Format settings, ReFrames : 4 frames
Codec ID : V_MPEG4/ISO/AVC
Duration : 18 min 28 s
Bit rate : 4 279 kb/s
Width : 1 280 pixels
Height : 720 pixels
Display aspect ratio : 16:9
Frame rate mode : Constant
Frame rate : 30.000 FPS
Standard : NTSC
Color space : YUV
Chroma subsampling : 4:2:0
Bit depth : 8 bits
Scan type : Progressive
Bits/(Pixel*Frame) : 0.155
Stream size : 566 MiB (96%)
Language : English
Default : Yes
Forced : No
Color range : Limited
Color primaries : BT.709
Transfer characteristics : BT.709
Matrix coefficients : BT.709

Audio
ID : 2
Format : AAC
Format/Info : Advanced Audio Codec
Format profile : LC
Codec ID : A_AAC
Duration : 18 min 28 s
Bit rate : 192 kb/s
Channel(s) : 2 channels
Channel positions : Front: L R
Sampling rate : 48.0 kHz
Frame rate : 46.875 FPS (1024 spf)
Compression mode : Lossy
Stream size : 25.0 MiB (4%)
Language : English
Default : Yes
Forced : No




   Похожие торренты   Торрент   Размер 
В этой теме нет новых непрочитанных сообщений. Наташа Ранголи и группа Леди - Новогодний концерт в Москве (2017) CAMRip-AVC

0 | 0

225.53 МБ

В этой теме нет новых непрочитанных сообщений. Группа Кристалл - Выступление в яхт-клубе Адмирал [14.09] (2013) CAMRip 720p

7 | 1

219.42 МБ

В этой теме нет новых непрочитанных сообщений. Студия 80 - Выступление в Новосибирске [15.09] (2017) CAMRip 720p

7 | 1

418.06 МБ

В этой теме нет новых непрочитанных сообщений. Группа «Лицей» - Выступление на Авторадио [12.12.2016] (2016) WEBRip

0 | 0

446.3 МБ

В этой теме нет новых непрочитанных сообщений. Группа Пикник - Выступление на фестивале Нашествие (2017) WEBRip 720p

165 | 12

803.77 МБ

В этой теме нет новых непрочитанных сообщений. Студия 80 - Выступление в Новосибирске [15.09] (2017) CAMRip

5 | 2

148.58 МБ

В этой теме нет новых непрочитанных сообщений. МГК и Комиссар - Выступление в клубе Адмирал (2011) CAMRip

21 | 1

1.62 ГБ




Вы не можете начинать темы
Вы не можете отвечать на сообщения
Вы не можете редактировать свои сообщения
Вы не можете удалять свои сообщения
Вы не можете добавлять вложения

Перейти:  
 Вход
ppkBB3cker v.2 © 2008-2014 @ PPK
[ Time : 0.017s | 15 Queries | GZIP : Off ]

cron