img image001 image001 image001 image001 image001 image001 image001 image001 image001 image001 image001 image001 image001 image001 image001 image001

Planets Sun Sun Sun
Статистика раздачи
Автор: Nickolas3434 | Размер: 16.55 ГБ | Добавлен: 08 май 2016
Раздают: 2    Качают: 1
Скачать торрент
Скачать торрент
Описание торрента

СообщениеДобавлено: 08 май 2016 


Название: David Gilmour: Remember That Night Disc 1
Исполнители: David Gilmour, Richard Wright, Phil Manzanera, Jon Carin, Guy Pratt, Steve DiStanislao, Dick Parry, David Crosby, Graham Nash, David Bowie, Robert Wyatt
Год выпуска: 2007
Жанр: Rock
Продолжительность: 02:32:17
Субтитры: Английские
Описание: Первый диск двухдискового Blu-Ray издания концерта Дэвида Гилмора "Remember That Night"
Треклист:
01. Speak To Me
02. Breathe (In The Air)
03. Time
04. Breathe (In The Air) (reprise)
05. Castellorizon
06. On An Island (featuring Crosby & Nash)
07. The Blue (featuring Crosby & Nash)
08. Red Sky At Night
09. This Heaven
10. Then I Close My Eyes (featuring Robert Wyatt)
11. Smile
12. Take A Breath
13. A Pocketful Of Stones
14. Where We Start
15. Shine On You Crazy Diamond (featuring Crosby & Nash)
16. Fat Old Sun
17. Coming Back To Life
18. High Hopes
19. Echoes
20. Wish You Were Here
21. Find The Cost Of Freedom (featuring Crosby & Nash)
22. Arnold Layne (featuring David Bowie)
23. Comfortably Numb (featuring David Bowie)
Качество: BDRip 1080p
Формат: MKV
Видео кодек: H264
Аудио кодек: DTS, AC3, PCM
Видео: MPEG4 Video (H264), 1920x1080, 29.97fps, 12.0 Mbps
Аудио: DTS, 48000 Hz, 6ch, 1509 kbps
Аудио: Dolby AC3, 48000 Hz, 6ch, 512 kbps
Аудио: PCM, 48000 Hz, 2ch, 1536 kbps
Формат субтитров: Softsub (SRT)
Сэмпл
General
Unique ID : 246641001187120507249640704397434939563 (0xB98D5437609E5DFB826390142647E8AB)
Complete name : F:DVDRip2007 David Gilmour Remember That Night 12007 David Gilmour Remember That Night 1.mkv
Format : Matroska
Format version : Version 4 / Version 2
File size : 16.5 GiB
Duration : 2h 32mn
Overall bit rate : 15.6 Mbps
Movie name : 2007 David Gilmour Remember That Night 1 / renta23
Encoded date : UTC 2016-05-07 21:14:27
Writing application : mkvmerge v8.3.0 ('Over the Horizon') 64bit
Writing library : libebml v1.3.1 + libmatroska v1.4.2
Video
ID : 1
Format : AVC
Format/Info : Advanced Video Codec
Format profile : High@L4.1
Format settings, CABAC : Yes
Format settings, ReFrames : 4 frames
Codec ID : V_MPEG4/ISO/AVC
Duration : 2h 32mn
Bit rate : 12.0 Mbps
Width : 1 920 pixels
Height : 1 080 pixels
Display aspect ratio : 16:9
Frame rate mode : Constant
Frame rate : 29.970 (30000/1001) fps
Color space : YUV
Chroma subsampling : 4:2:0
Bit depth : 8 bits
Scan type : Progressive
Bits/(Pixel*Frame) : 0.193
Stream size : 12.8 GiB (77%)
Title : 2007 David Gilmour Remember That Night 1
Writing library : x264 core 146 r2538 121396c
Encoding settings : cabac=1 / ref=4 / deblock=1:-1:-1 / analyse=0x3:0x133 / me=umh / subme=11 / psy=1 / psy_rd=1.07:0.23 / mixed_ref=1 / me_range=24 / chroma_me=1 / trellis=2 / 8x8dct=1 / cqm=0 / deadzone=21,11 / fast_pskip=0 / chroma_qp_offset=-3 / threads=12 / lookahead_threads=2 / sliced_threads=0 / nr=0 / decimate=1 / interlaced=0 / bluray_compat=0 / constrained_intra=0 / bframes=8 / b_pyramid=2 / b_adapt=2 / b_bias=0 / direct=3 / weightb=1 / open_gop=0 / weightp=2 / keyint=250 / keyint_min=25 / scenecut=40 / intra_refresh=0 / rc=2pass / mbtree=0 / bitrate=12000 / ratetol=1.0 / qcomp=0.60 / qpmin=0 / qpmax=69 / qpstep=4 / cplxblur=20.0 / qblur=0.5 / ip_ratio=1.40 / pb_ratio=1.30 / aq=2:1.00
Language : English
Default : Yes
Forced : No
Audio #1
ID : 2
Format : DTS
Format/Info : Digital Theater Systems
Mode : 16
Format settings, Endianness : Big
Codec ID : A_DTS
Duration : 2h 32mn
Bit rate mode : Constant
Bit rate : 1 509 Kbps
Channel(s) : 6 channels
Channel positions : Front: L C R, Side: L R, LFE
Sampling rate : 48.0 KHz
Frame rate : 93.750 fps (512 spf)
Bit depth : 16 bits
Compression mode : Lossy
Stream size : 1.61 GiB (10%)
Title : DTS 5.1
Language : English
Default : Yes
Forced : No
Audio #2
ID : 3
Format : AC-3
Format/Info : Audio Coding 3
Mode extension : CM (complete main)
Format settings, Endianness : Big
Codec ID : A_AC3
Duration : 2h 32mn
Bit rate mode : Constant
Bit rate : 512 Kbps
Channel(s) : 6 channels
Channel positions : Front: L C R, Side: L R, LFE
Sampling rate : 48.0 KHz
Frame rate : 31.250 fps (1536 spf)
Compression mode : Lossy
Stream size : 558 MiB (3%)
Title : AC3 5.1
Language : English
Default : No
Forced : No
Audio #3
ID : 4
Format : PCM
Codec ID : A_PCM/INT/LIT
Duration : 2h 32mn
Bit rate mode : Constant
Bit rate : 1 536 Kbps
Channel(s) : 2 channels
Sampling rate : 48.0 KHz
Frame rate : 32.000 fps (1500 spf)
Bit depth : 16 bits
Stream size : 1.63 GiB (10%)
Title : PCM Stereo
Language : English
Default : No
Forced : No
Text
ID : 5
Format : UTF-8
Codec ID : S_TEXT/UTF8
Codec ID/Info : UTF-8 Plain Text
Duration : 2h 25mn
Bit rate : 16 bps
Count of elements : 502
Stream size : 17.1 KiB (0%)
Language : English
Default : No
Forced : No
Menu
00:00:00.000 : en:Chapter 01
00:01:10.503 : en:Chapter 02
00:04:01.474 : en:Chapter 03
00:09:16.255 : en:Chapter 04
00:10:25.391 : en:Chapter 05
00:15:04.103 : en:Chapter 06
00:22:40.258 : en:Chapter 07
00:28:47.258 : en:Chapter 08
00:31:58.449 : en:Chapter 09
00:36:13.471 : en:Chapter 10
00:45:59.957 : en:Chapter 11
00:50:19.716 : en:Chapter 12
00:56:28.518 : en:Chapter 13
01:02:31.914 : en:Chapter 14
01:10:31.894 : en:Chapter 15
01:10:32.027 : en:Chapter 16
01:11:23.846 : en:Chapter 17
01:22:37.686 : en:Chapter 18
01:28:58.833 : en:Chapter 19
01:35:39.867 : en:Chapter 20
01:44:58.258 : en:Chapter 21
02:07:16.562 : en:Chapter 22
02:12:43.422 : en:Chapter 23
02:14:46.378 : en:Chapter 24
02:18:57.262 : en:Chapter 25
02:28:37.441 : en:Chapter 26





   Похожие торренты   Торрент   Размер 
В этой теме нет новых непрочитанных сообщений. David Gilmour: Remember That Night Disc 2 (2007) BDRip 1080p

0 | 0

8.68 ГБ

В этой теме нет новых непрочитанных сообщений. David Gilmour - L.A. 3rd Night (2CD) Bootleg, Live (2016) MP3

143 | 6

355.91 МБ

В этой теме нет новых непрочитанных сообщений. David Gilmour - Live At Pompeii (2017) BDRip 1080p

80 | 14

18.14 ГБ

В этой теме нет новых непрочитанных сообщений. David Gilmour - Live At Pompeii (2017) BDRip 1080p от HDReactor

34 | 6

21.28 ГБ

В этой теме нет новых непрочитанных сообщений. David Gilmour - Live At Pompeii (2017) BDRemux 1080p

5 | 2

34.78 ГБ

В этой теме нет новых непрочитанных сообщений. David Gilmour - Rattle That Lock [Deluxe] (2015) Blu-ray 1080p

91 | 37

22.12 ГБ

В этой теме нет новых непрочитанных сообщений. David Gilmour - Live at Pompeii [Deluxe Edition] (2017) BDRip от Лумина

28 | 2

3.53 ГБ




Вы не можете начинать темы
Вы не можете отвечать на сообщения
Вы не можете редактировать свои сообщения
Вы не можете удалять свои сообщения
Вы не можете добавлять вложения

Перейти:  
 Вход
ppkBB3cker v.2 © 2008-2014 @ PPK
[ Time : 0.035s | 16 Queries | GZIP : Off ]

cron