img image001 image001 image001 image001 image001 image001 image001 image001 image001 image001 image001 image001 image001 image001 image001 image001

Planets Sun Sun Sun
Статистика раздачи
Автор: Nickolas3434 | Размер: 1.42 ГБ | Добавлен: 25 ноя 2015
Раздают: 10    Качают: 1
Скачать торрент
Скачать торрент
Описание торрента

СообщениеДобавлено: 25 ноя 2015 


Информация о фильме
Название: Славянский Базар 2008. Беспокойное сердце - Юбилейный вечер Игоря Лученка
Год выхода: 2008
Жанр: Pop, Folk
О фильме:
СЛАВЯНСКИЙ БАЗАР-2008 г. ВИТЕБСК
10 июля, четверг 18:00 Летний Амфитеатр
«БЕСПОКОЙНОЕ СЕРДЦЕ». Юбилейный вечер композитора Игоря Лученка.
Президентский оркестр Республики Беларусь п/р Виктора БАБАРИКИНА; Виктория АЛЕШКО, Александра ГАЙДУК, Владимир ГРОМОВ, Георгий КОЛДУН, Полина ЛАСКИНА, Яков НАУМЕНКО, Владимир ПРОВАЛИНСКИЙ, Ядвига ПОПЛАВСКАЯ и Александр ТИХАНОВИЧ, Елена СПИРИДОВИЧ, Алексей ХЛЕСТОВ, Анатолий ЯРМОЛЕНКО; ансамбль «БЯСЕДА», Государственный ансамбль танца Республики Беларусь, хор Национального академического Большого театра оперы Республики Беларусь, капелла мальчиков Республиканского музыкального колледжа, ансамбль танца «ЗОРЬКА», детский ансамбль «ХВІЛІНКА» (Беларусь); Иосиф КОБЗОН, Александра ПАХМУТОВА, Николай ДОБРОНРАВОВ (Россия); Константин МОСКОВИЧ (Молдова) и другие.
Код:
1) Яков НАУМЕНКО -- Верасы (Игорь Лученок - Иосиф Скурко)
2) Владимир ПРОВАЛИНСКИЙ - Беспокойное сердце (Игорь Лученок - А.Маркевич)
3) Кристина СВЕТЛИЧНАЯ -- Жураўлі на Палессе ляцяць (Игорь Лученок - А. Ставер)
4) Иосиф КОБЗОН -- Как молоды мы были (Александра Пахмутова -- Николай Добронравов)
5) Ансамбль «БЯСЕДА» - Три Алёны (Игорь Лученок -- Д. Симанович)
6) Алексей ХЛЕСТОВ -- Вераніка (Игорь Лученок -- М. Богданович)
7) Президентский оркестр Республики Беларусь п/р Виктора БАБАРИКИНА -- Белорусская сюита (И. Лученок, В. Мулявин)
8) Полина ЛАСКИНА -- Песенка о доброте (Игорь Лученок - Н. Тулуповой)
9) Игорь ЛУЧЕНОК -- Белорусская столица (Игорь Лученок)
10) Виктория АЛЕШКО и Владимир ГРОМОВ -- Заклинание (И.Лученок - Е.Евтушенко)
11) Иосиф КОБЗОН -- Письмо из 45-го (И. Лученок - Михаил Ясень)
12) Иосиф КОБЗОН -- Майский вальс (И. Лученок - Михаил Ясень)
13) Нелли БОГУСЛАВСКАЯ и Измаил КАПЛАНОВ -- Рыжая восень
14) Ядвига ПОПЛАВСКАЯ и Александр ТИХАНОВИЧ -- Морской прибой (И. Лученок - Н Третьяков)
15) Константин МОСКОВИЧ -- Поппури
16) Анатолий ЯРМОЛЕНКО -- Світанак (И. Лученок -- В. Некляев)
17) Иосиф КОБЗОН - И пока на земле существует любовь (И. Лученок - Р. Рождественский)

Запись потока *.ts с наземного цифрового телеканала "Беларусь 3", ремукс в *.mkv программой VideoReDo.

Страна: Республика Беларусь
Студия: Белтелерадиокомпания
Продолжительность: 01:20:47
Файл
Кодек: AVC (H264)
Качество: DVB
Видео: MPEG4 Video (H264) 720x576 (49:36) 25fps, 2 207 Kbps
Звук: MP2, 256 kbps, 2 channels, 48 kHz
Код:
General
Unique ID                      : 30696555275768262117760344410744860442 (0x1717F1061CB5DD4A98151E0CDDDAAF1A)
Complete name                  : D:Новая  земля 2КонцертыСлавянский базарСлавянский базар (2008)БЕСПОКОЙНОЕ СЕРДЦЕ. Юбилейный вечер композитора Игоря ЛУЧЕНКАСБ-Беспокойное сердце-Юбилейный вечер И.Лученка (2008).mkv
Format                         : Matroska
Format version                 : Version 2
File size                      : 1.42 GiB
Duration                       : 1h 20mn
Overall bit rate               : 2 513 Kbps
Writing application            : Lavf52.64.2
Writing library                : Lavf52.64.2
Video
ID                             : 1
Format                         : AVC
Format/Info                    : Advanced Video Codec
Format profile                 : Main@L3.0
Format settings, CABAC         : Yes
Format settings, ReFrames      : 4 frames
Codec ID                       : V_MPEG4/ISO/AVC
Duration                       : 1h 20mn
Bit rate                       : 2 207 Kbps
Width                          : 720 pixels
Height                         : 576 pixels
Display aspect ratio           : 4:3
Original display aspect ratio  : 4:3
Frame rate mode                : Constant
Frame rate                     : 25.000 fps
Standard                       : PAL
Color space                    : YUV
Chroma subsampling             : 4:2:0
Bit depth                      : 8 bits
Scan type                      : MBAFF
Scan order                     : Top Field First
Bits/(Pixel*Frame)             : 0.213
Stream size                    : 1.25 GiB (88%)
Default                        : Yes
Forced                         : No
Color primaries                : BT.601 PAL
Transfer characteristics       : BT.470 System B, BT.470 System G
Matrix coefficients            : BT.601
Color range                    : Limited
Audio
ID                             : 2
Format                         : MPEG Audio
Format version                 : Version 1
Format profile                 : Layer 2
Codec ID                       : A_MPEG/L2
Codec ID/Hint                  : MP2
Duration                       : 1h 20mn
Bit rate mode                  : Constant
Bit rate                       : 256 Kbps
Channel(s)                     : 2 channels
Sampling rate                  : 48.0 KHz
Compression mode               : Lossy
Stream size                    : 148 MiB (10%)
Language                       : English
Default                        : Yes
Forced                         : No
 




   Похожие торренты   Торрент   Размер 
В этой теме нет новых непрочитанных сообщений. Славянский базар 2008. Антология (2008) DVB от AND03AND

1 | 1

996.52 МБ

В этой теме нет новых непрочитанных сообщений. Нам не жить друг без друга - Творческий вечер Александры Пахмутовой / Славянский базар в Витебске (2015) DVB от AND03AND

2 | 1

1.58 ГБ

В этой теме нет новых непрочитанных сообщений. Нам не жить друг без друга - Творческий вечер Александры Пахмутовой / Славянский базар в Витебске (2015) DVB от AND03AND

8 | 8

1.63 ГБ

В этой теме нет новых непрочитанных сообщений. Славянский базар 2017. Юбилейный концерт - Александр Зацепин. Есть только миг… (2017) DVB от AND03AND

1 | 0

1.85 ГБ

В этой теме нет новых непрочитанных сообщений. Славянский базар 2010. Творческий вечер Раймонда Паулса (2010) DVB от AND03AND

1 | 2

1.35 ГБ

В этой теме нет новых непрочитанных сообщений. Славянский Базар в Витебске 1998. Мелодии любви (Песни прошлого века) (2009) DVB от AND03AND

4 | 2

958.76 МБ

В этой теме нет новых непрочитанных сообщений. Славянский базар в Витебске 2017. ЗАРА - сольный концерт (2017) DVB от AND03AND

0 | 0

2.24 ГБ




Вы не можете начинать темы
Вы не можете отвечать на сообщения
Вы не можете редактировать свои сообщения
Вы не можете удалять свои сообщения
Вы не можете добавлять вложения

Перейти:  
 Вход
ppkBB3cker v.2 © 2008-2014 @ PPK
[ Time : 0.030s | 16 Queries | GZIP : Off ]

cron