img image001 image001 image001 image001 image001 image001 image001 image001 image001 image001 image001 image001 image001 image001 image001 image001

Planets Sun Sun Sun
Статистика раздачи
Автор: Снежана | Размер: 4.93 ГБ | Добавлен: 30 июл 2013
Раздают: 80    Качают: 6
Скачать торрент
Скачать торрент
Описание торрента

СообщениеДобавлено: 30 июл 2013 

#77

Оригинальное название: Юбилейный концерт группы "A`Studio"
Год выпуска: 2013
Жанр: Концерт, поп
Исполнители: A`Studio

Описание: "A`Studio" – легендарный коллектив, обладающий уникальным для нашей поп-cцены чувством стиля, музыкальным вкусом и создающий интересные аранжировки безупречного качества. К 25-летнему юбилею "A’STUDIO" подготовили программу, куда вошли все самые значимые хиты, включая "Еще люблю", "Бегу к тебе", "Улетаю", "Ангел", "Я искала тебя", кавер-версия на песню Аллы Пугачевой "Так же как все" и многие другие. Во время композиции "Fashion Girl" на сцену вышли более полусотни одинаково одетых танцовщиц, которые плавно переместились в зал. На песне "Бегу к тебе" вокалистка " A’Studio " Кети Топурия появилась перед зрителями в серебряном кабриолете в окружении нескольких танцоров.

Выпущено: Россия, Первый канал
Продолжительность: 01:19:42
Язык: Русский

A'Studio - Бегу к тебе
A'Studio - Еще люблю
Владимир Пресняков/A'Studio - Сезон дождей
Алсу / A'Studio - Любовь-река
Игорь Крутой / A'Studio - Папа,Мама
Леонид Агутин / A'Studio - Джулия
A'Studio - Душа
A'Studio - Так же как все
Батырхан Шукенов / A'Studio - Нелюбимая
Б.Шукенов,В.Пресняков,Л.Агутин,Г.Мартиросян / A'Studio - Солдат любви
Б.Шукенов,В.Пресняков,Л.Агутин,Г.Мартиросян / A'Studio - Стань моей молитвой/Белая река
A'Studio - Только ты и я
A'Studio - Такие дела
A'Studio - Улетаю
Сергей Лазарев / A'Studio - Стоп, ночь
Филипп Киркоров / A'Studio - Ночь-подруга
A'Studio - fashion girl
A'Studio - Помни это
Б.Шукенов,В.Пресняков,Л.Агутин,Алсу / A'Studio - Белая река
General
ID : 1 (0x1)
Complete name : N:ВЫКЛАДКАHDTVМузыкаЮбилейный концерт группы A'Studio (2012, Pop, Концерт, HDTV) (MYDIMKA).ts
Format : MPEG-TS
File size : 4.93 GiB
Duration : 1h 19mn
Overall bit rate mode : Variable
Overall bit rate : 8 843 Kbps

Video
ID : 2931 (0xB73)
Menu ID : 1 (0x1)
Format : AVC
Format/Info : Advanced Video Codec
Format profile : High@L4.0
Format settings, CABAC : Yes
Format settings, ReFrames : 3 frames
Codec ID : 27
Duration : 1h 19mn
Bit rate : 7 824 Kbps
Width : 1 920 pixels
Height : 1 080 pixels
Display aspect ratio : 16:9
Frame rate : 25.000 fps
Color space : YUV
Chroma subsampling : 4:2:0
Bit depth : 8 bits
Scan type : MBAFF
Bits/(Pixel*Frame) : 0.151
Stream size : 4.36 GiB (88%)

Audio #1
ID : 2932 (0xB74)
Menu ID : 1 (0x1)
Format : MPEG Audio
Format version : Version 1
Format profile : Layer 2
Codec ID : 3
Duration : 1h 19mn
Bit rate mode : Constant
Bit rate : 192 Kbps
Channel(s) : 2 channels
Sampling rate : 48.0 KHz
Compression mode : Lossy
Stream size : 110 MiB (2%)
Language : Russian

Audio #2
ID : 2933 (0xB75)
Menu ID : 1 (0x1)
Format : AC-3
Format/Info : Audio Coding 3
Mode extension : CM (complete main)
Format settings, Endianness : Big
Codec ID : 129
Duration : 1h 19mn
Bit rate mode : Constant
Bit rate : 384 Kbps
Channel(s) : 2 channels
Channel positions : Front: L R
Sampling rate : 48.0 KHz
Bit depth : 16 bits
Compression mode : Lossy
Stream size : 219 MiB (4%)
Language : Russian

Качество: HDTV 1080i
Формат: TS
Видео: MPEG-4 AVC, 7838 Кбит/с, 1920x1080, 25.000 кадр/с
Аудио 1: MP2, 2 ch, 192 Kbps
Аудио 2: AC3, 2 ch, 384 Kbps



Релиз от:



   Похожие торренты   Торрент   Размер 
В этой теме нет новых непрочитанных сообщений. Музыкальные вечера в Мирском замке. Юбилейный концерт группы «Тяни-Толкай» (2014) DVB

127 | 21

1.79 ГБ

В этой теме нет новых непрочитанных сообщений. Юбилейный концерт Евгения Крылатова [03.01] (2015) HDTV 1080i

32 | 32

5.49 ГБ

В этой теме нет новых непрочитанных сообщений. Руки вверх! 20 лет. Юбилейный концерт (2017) HDTV 1080i от HitWay

53 | 5

2.96 ГБ

В этой теме нет новых непрочитанных сообщений. Михаил Жванецкий. Юбилейный концерт (2014) HDTV 1080i от MediaClub

245 | 161

6.01 ГБ

В этой теме нет новых непрочитанных сообщений. Евровидению 60 лет (Юбилейный концерт) / Eurovision 60s winners (2015) HDTV (1080i)

81 | 8

3.37 ГБ

В этой теме нет новых непрочитанных сообщений. Юбилейный концерт Игоря Крутого [Эфир 03.01] (2015) HDTV 1080i от MediaClub

131 | 26

9.63 ГБ

В этой теме нет новых непрочитанных сообщений. Моно. Юбилейный концерт Ирины Аллегровой (2017) HDTV 1080i от Files-x

18 | 5

7.8 ГБ




Вы не можете начинать темы
Вы не можете отвечать на сообщения
Вы не можете редактировать свои сообщения
Вы не можете удалять свои сообщения
Вы не можете добавлять вложения

Перейти:  
 Вход
ppkBB3cker v.2 © 2008-2014 @ PPK
[ Time : 0.030s | 15 Queries | GZIP : Off ]

cron