img image001 image001 image001 image001 image001 image001 image001 image001 image001 image001 image001 image001 image001 image001 image001 image001

Planets Sun Sun Sun
Статистика раздачи
Автор: Снежана | Размер: 1.27 ГБ | Добавлен: 29 июл 2013
Раздают: 257    Качают: 6
Скачать торрент
Скачать торрент
Описание торрента

СообщениеДобавлено: 29 июл 2013 

#77



Дата выхода: 16 июня 1999 г.
Жанр: Панк-рок
Продолжительность: 01:10:35

Официальный сайт




Запись концерта:
Звук - Павел Сажинов
Оператор - А.Миронов
Сведение - Е.Левин (студия «Добролет»)
Мастеринг - Юрий Щербаков (студия «Calypso»)




General
Complete name : C:VideoКороль и Шут - Ели мясо мужики 1999.avi
Format : AVI
Format/Info : Audio Video Interleave
File size : 1.27 GiB
Duration : 1h 10mn
Overall bit rate : 2 575 Kbps
Writing application : VirtualDubMod 1.5.4.1 (build 2178/release)
Writing library : VirtualDubMod build 2178/release

Video
ID : 0
Format : MPEG-4 Visual
Format profile : Advanced Simple@L5
Format settings, BVOP : 1
Format settings, QPel : No
Format settings, GMC : No warppoints
Format settings, Matrix : Custom
Codec ID : XVID
Codec ID/Hint : XviD
Duration : 1h 10mn
Bit rate : 2 375 Kbps
Width : 720 pixels
Height : 544 pixels
Display aspect ratio : 4:3
Frame rate : 25.000 fps
Color space : YUV
Chroma subsampling : 4:2:0
Bit depth : 8 bits
Scan type : Progressive
Compression mode : Lossy
Bits/(Pixel*Frame) : 0.243
Stream size : 1.17 GiB (92%)
Writing library : XviD 64

Audio
ID : 1
Format : MPEG Audio
Format version : Version 1
Format profile : Layer 3
Mode : Joint stereo
Mode extension : MS Stereo
Codec ID : 55
Codec ID/Hint : MP3
Duration : 1h 10mn
Bit rate mode : Constant
Bit rate : 192 Kbps
Channel(s) : 2 channels
Sampling rate : 48.0 KHz
Compression mode : Lossy
Stream size : 96.9 MiB (7%)
Alignment : Aligned on interleaves
Interleave, duration : 80 ms (2.00 video frames)
Interleave, preload duration : 504 ms
Writing library : LAME3.98r
Encoding settings : -m j -V 4 -q 2 -lowpass 18.6 -b 192


Качество: DVDRip
Формат: Avi
Видео кодек: XviD
Аудио кодек: Mp3
Видео: 720x544 (4:3), 25.000 fps, ~2375 kbps
Аудио: 48.0 КГц, 2 channels, стерео, 192 kbps





   Похожие торренты   Торрент   Размер 
В этой теме нет новых непрочитанных сообщений. Король и Шут - Тень Клоуна [Концерт в СДК МАИ] (2011) DVDRip от New-Team

198 | 8

746.48 МБ

В этой теме нет новых непрочитанных сообщений. Король и Шут - Фильм-концерт «На Краю» (2014) WEB-DLRip-AVC

40 | 2

1.43 ГБ

В этой теме нет новых непрочитанных сообщений. Король и Шут - Фильм-концерт «На Краю» (2014) WEB-DL 1080p

138 | 9

8.81 ГБ

В этой теме нет новых непрочитанных сообщений. Король и Шут - Фильм-концерт «На Краю» [09.02] (2014) WEB-DL 1080p

1230 | 92

4.16 ГБ

В этой теме нет новых непрочитанных сообщений. Балет - А.И. Хачатурян - Спартак (Валентин Елизарьев) (1999) BD DVB от AND03AND

3 | 0

1.9 ГБ

В этой теме нет новых непрочитанных сообщений. Мужики!... (1981) DVDRip-AVC

417 | 27

1.73 ГБ

В этой теме нет новых непрочитанных сообщений. Мясо / Vlees (2010) DVDRip | L1

1318 | 1056

1.13 ГБ




Вы не можете начинать темы
Вы не можете отвечать на сообщения
Вы не можете редактировать свои сообщения
Вы не можете удалять свои сообщения
Вы не можете добавлять вложения

Перейти:  
 Вход
ppkBB3cker v.2 © 2008-2014 @ PPK
[ Time : 0.032s | 15 Queries | GZIP : Off ]

cron