img image001 image001 image001 image001 image001 image001 image001 image001 image001 image001 image001 image001 image001 image001 image001 image001

Planets Sun Sun Sun
Статистика раздачи
Автор: Снежана | Размер: 1.78 ГБ | Добавлен: 29 июл 2013
Раздают: 5    Качают: 3
Скачать торрент
Скачать торрент
Описание торрента

СообщениеДобавлено: 29 июл 2013 



Название: Live at the Royal Albert Hall 2011
Исполнитель: B.B. King
Год: 2011
Жанр: Blues
Страна: USA, UK

Продолжительность: 01:19:00
Формат/Кодек: DVDRip AVC
Aудио: AC-3 448 Kbps 6 channels Front: L C R, Side: L R,
Видео: MPEG-TS AVC 2 561 Kbps 720:576 pixels 16:9



01. I Need You So
02. Key To The Highway
03. See That My Grave Is Kept Clean
04. All Over Again
05. Rock Me Baby
06. You Are My Sunshine
07. B.B. Jams With Guests
08. The Thrill Is Gone
09. Guess Who
10. When The Saints Go Marching In


at The Royal Albert Hall_2011.m2ts
Format : MPEG-TS
File size : 1.78 GiB
Duration : 1h 20mn
Overall bit rate mode : Variable
Overall bit rate : 3 170 Kbps
Maximum Overall bit rate : 40.0 Mbps

Video
ID : 4113 (0x1011)
Menu ID : 1 (0x1)
Format : AVC
Format/Info : Advanced Video Codec
Format profile : Baseline@L3.0
Format settings, CABAC : No
Format settings, ReFrames : 1 frame
Format settings, GOP : M=1, N=29
Codec ID : 27
Duration : 1h 20mn
Bit rate mode : Variable
Bit rate : 2 561 Kbps
Maximum bit rate : 3 000 Kbps
Width : 720 pixels
Height : 576 pixels
Display aspect ratio : 16:9
Frame rate : 25.000 fps
Standard : PAL
Color space : YUV
Chroma subsampling : 4:2:0
Bit depth : 8 bits
Scan type : Progressive
Bits/(Pixel*Frame) : 0.247
Stream size : 1.43 GiB (81%)

Audio
ID : 4352 (0x1100)
Menu ID : 1 (0x1)
Format : AC-3
Format/Info : Audio Coding 3
Mode extension : CM (complete main)
Codec ID : 129
Duration : 1h 20mn
Bit rate mode : Constant
Bit rate : 448 Kbps
Channel(s) : 6 channels
Channel positions : Front: L C R, Side: L R, LFE
Sampling rate : 48.0 KHz
Bit depth : 16 bits
Compression mode : Lossy
Delay relative to video : 9ms
Stream size : 257 MiB (14%)

я просто обожаю музыку нашего времени, единственную цель которую преследую - это поделиться с Вами находками, клянусь хлебом, никакой иной цели не преследую. Меня постоянно задевает то, что тюряжная музыка или ещё называемая шансон в топе, или бездарная попса, если откопаете забытые группы, или песни и пр., делитесь, сейчас техника доросла до того,что старьё можно обуделать в высоком качестве.( если честно самое высокое качество для меня запись pink floyd с шумом пластинки)



   Похожие торренты   Торрент   Размер 
В этой теме нет новых непрочитанных сообщений. Heart - Live At The Royal Albert Hall (2016) FLAC

1 | 1

487.38 МБ

В этой теме нет новых непрочитанных сообщений. James Last: Live At The Royal Albert Hall (2007) BDRip

335 | 16

2.18 ГБ

В этой теме нет новых непрочитанных сообщений. Joe Bonamassa - Live From The Royal Albert Hall (2010) BDRip 1080p

28 | 7

12.03 ГБ

В этой теме нет новых непрочитанных сообщений. James Last: Live At The Royal Albert Hall (2007) BDRip 720p

18 | 12

7.29 ГБ

В этой теме нет новых непрочитанных сообщений. Eric Clapton - Slowhand at 70: Live at The Royal Albert Hall (2015) BDRip-AVC

136 | 13

1.52 ГБ

В этой теме нет новых непрочитанных сообщений. Eric Clapton - Slowhand at 70 [Live at The Royal Albert Hall] (2015) BDRip 720p

64 | 12

5.95 ГБ

В этой теме нет новых непрочитанных сообщений. Steve Hackett - Genesis Revisited: Live at the Royal Albert Hall (2014) DVD9 от Brazzass

23 | 20

7.58 ГБ




Вы не можете начинать темы
Вы не можете отвечать на сообщения
Вы не можете редактировать свои сообщения
Вы не можете удалять свои сообщения
Вы не можете добавлять вложения

Перейти:  
 Вход
ppkBB3cker v.2 © 2008-2014 @ PPK
[ Time : 0.088s | 15 Queries | GZIP : Off ]

cron