img image001 image001 image001 image001 image001 image001 image001 image001 image001 image001 image001 image001 image001 image001 image001 image001

Planets Sun Sun Sun
Статистика раздачи
Автор: PriZraK | Размер: 4.37 ГБ | Добавлен: 15 фев 2014
Раздают: 52    Качают: 3
Скачать торрент
Скачать торрент
Описание торрента

СообщениеДобавлено: 15 фев 2014 


Информация о фильме
    Русское название: Интерстелла 5555: История секретной звездной системы
    Оригинальное название: Interstella 5555: The 5tory of the 5ecret 5tar 5ystem
    Год выхода: 2003
    Жанр: Аниме, фантастика, фэнтези, боевик, приключения, музыка
    Режиссер: Кадзухиса Такэноти
    Выпущено: Япония, Франция
    Продолжительность: 01:31:35
    Перевод: Не требуется
    В ролях: Daft Punk


Сюжет фильма
    Фильм — визуальная реализация альбома Discovery французской хаус-группы Daft Punk. Каждый трек с альбома был анимирован как отдельный эпизод, и все они объединены общей историей о поп-группе с далёкой планеты. Анимация выполнена в стиле работ Мацумото Лейдзи. Четыре музыканта из другой галактики, которых похитил злой менеджер, становятся самой лучшей группой на Земле.

    Треклист:
      01. One More Time
      02. Aerodynamic
      03. Digital Love
      04. Harder, Better, Faster, Stronger
      05. Crescendolls
      06. Nightvision
      07. Superheroes
      08. High Life
      09. Something About Us
      10. Voyager
      11. Veridis Quo
      12. Short Circuit
      13. Face To Face
      14. Too Long
      15. Aerodynamic (Daft Punk Remix)


Файл
    Качество: BDRip 1080p (исходник Blu-ray Disc)
    Видео: 1416x1080, 8918 Кбит/сек, 25,000 кадр/сек, AVC, x264, High@L4.1, 4:3, 0.233 Бит/[Пиксели*Кадры], 2pass
    Аудио 1: AC-3, 640 Кбит/сек, 6 канала(ов), 48,0 КГц - Оригинал / Французский
    Субтитры: Нет
    Чаптеры: Есть



Автор Рипа: Сообщество:



Format : Matroska
Format version : Version 2
File size : 4.37 GiB
Duration : 1h 5mn
Overall bit rate : 9 541 Kbps
Movie name : Интерстелла 5555.(2003).BDRip.1080p.[envy]
Encoded date : UTC 2013-12-12 04:48:17
Writing application : mkvmerge v5.8.0 ('No Sleep / Pillow') built on Sep 2 2012 15:37:04
Writing library : libebml v1.2.3 + libmatroska v1.3.0

Video
ID : 1
Format : AVC
Format/Info : Advanced Video Codec
Format profile : High@L4.1
Format settings, CABAC : Yes
Format settings, ReFrames : 4 frames
Codec ID : V_MPEG4/ISO/AVC
Duration : 1h 5mn
Bit rate : 8 918 Kbps
Width : 1 416 pixels
Height : 1 080 pixels
Display aspect ratio : 4:3
Frame rate mode : Constant
Frame rate : 25.000 fps
Color space : YUV
Chroma subsampling : 4:2:0
Bit depth : 8 bits
Scan type : Progressive
Bits/(Pixel*Frame) : 0.233
Stream size : 3.99 GiB (91%)
Title : Интерстелла 5555.(2003).BDRip.1080p.[envy]
Writing library : x264 core 140 r2377 1ca7bb9
Encoding settings : cabac=1 / ref=4 / deblock=1:-1:-1 / analyse=0x3:0x133 / me=umh / subme=11 / psy=1 / psy_rd=1.00:0.00 / mixed_ref=1 / me_range=32 / chroma_me=1 / trellis=2 / 8x8dct=1 / cqm=0 / deadzone=21,11 / fast_pskip=0 / chroma_qp_offset=-2 / threads=12 / lookahead_threads=1 / sliced_threads=0 / nr=0 / decimate=1 / interlaced=0 / bluray_compat=0 / constrained_intra=0 / bframes=6 / b_pyramid=2 / b_adapt=2 / b_bias=0 / direct=3 / weightb=1 / open_gop=0 / weightp=2 / keyint=250 / keyint_min=25 / scenecut=40 / intra_refresh=0 / rc=2pass / mbtree=0 / bitrate=8918 / ratetol=2.0 / qcomp=0.60 / qpmin=0 / qpmax=69 / qpstep=4 / cplxblur=20.0 / qblur=0.5 / ip_ratio=1.40 / pb_ratio=1.30 / aq=1:0.80
Language : English
Default : Yes
Forced : No

Audio
ID : 2
Format : AC-3
Format/Info : Audio Coding 3
Mode extension : CM (complete main)
Format settings, Endianness : Big
Codec ID : A_AC3
Duration : 1h 5mn
Bit rate mode : Constant
Bit rate : 640 Kbps
Channel count : 6 channels
Channel positions : Front: L C R, Side: L R, LFE
Sampling rate : 48.0 KHz
Bit depth : 16 bits
Compression mode : Lossy
Stream size : 300 MiB (7%)
Title : French
Language : French
Default : Yes
Forced : No

Menu
00:00:00.000 : :Chapter 01
00:01:58.000 : :Chapter 02
00:07:07.839 : :Chapter 03
00:10:43.000 : :Chapter 04
00:15:07.400 : :Chapter 05
00:18:50.880 : :Chapter 06
00:22:45.800 : :Chapter 07
00:24:36.760 : :Chapter 08
00:28:32.119 : :Chapter 09
00:31:48.480 : :Chapter 10
00:35:36.800 : :Chapter 11
00:39:21.920 : :Chapter 12
00:46:08.080 : :Chapter 13
00:49:25.000 : :Chapter 14
00:53:23.400 : :Chapter 15
01:03:23.600 : :Chapter 16


При поддержке:



   Похожие торренты   Торрент   Размер 
В этой теме нет новых непрочитанных сообщений. Вселенная: 7 чудес Солнечной системы / Universe: 7 Wonders of the Solar System (2010) BDRip 1080p от As61 | 3D-Video | halfOU | Лицензия

511 | 37

5.84 ГБ

В этой теме нет новых непрочитанных сообщений. BBC: Горизонт - Тайны Солнечной системы / Horizon: Secrets of the Solar System (2015) HDTV 1080p | L1

1022 | 29

1.65 ГБ

В этой теме нет новых непрочитанных сообщений. 007: На секретной службе Её Величества / On Her Majesty's Secret Service (1969) HDRip-AVC | D, P, P2, A

9 | 2

2.9 ГБ

В этой теме нет новых непрочитанных сообщений. 007: На секретной службе ее Величества / On Her Majesty's Secret Service (1967) HDRip от Scarabey | D

75 | 5

801.13 МБ

В этой теме нет новых непрочитанных сообщений. Гестапо. История Тайной полиции Гитлера / Gestapo. The story of hitler's secret police force (1999) DVDRip от Pshichko66

7 | 3

801.4 МБ

В этой теме нет новых непрочитанных сообщений. System Ninja 3.1.2 + Portable [2016, Оптимизация, очистка системы]

158 | 13

9.24 МБ

В этой теме нет новых непрочитанных сообщений. BBC. Закат Солнечной системы / The End of The Solar System (2016) HDTV 1080i | P 2, P1

138 | 0

2.77 ГБ




Вы не можете начинать темы
Вы не можете отвечать на сообщения
Вы не можете редактировать свои сообщения
Вы не можете удалять свои сообщения
Вы не можете добавлять вложения

Перейти:  
 Вход
ppkBB3cker v.2 © 2008-2014 @ PPK
[ Time : 0.021s | 16 Queries | GZIP : Off ]

cron