img image001 image001 image001 image001 image001 image001 image001 image001 image001 image001 image001 image001 image001 image001 image001 image001

Planets Sun Sun Sun
Статистика раздачи
Автор: Снежана | Размер: 4.35 ГБ | Добавлен: 27 июл 2013
Раздают: 21    Качают: 5
Скачать торрент
Скачать торрент
Описание торрента

СообщениеДобавлено: 27 июл 2013 

#77




Информация о фильме

Название: Гриффины: Голубой урожай
Оригинальное название: Family Guy Presents Blue Harvest
Год выхода: 2007
Жанр: мультфильм, комедия
Режиссер: Питер Шин, Пит Мишелс, Доминик Бьянчи, ...
В ролях: Сет МакФарлейн, Алекс Борштейн, Сет Грин, Мила Кунис, Майк Генри, Дэнни Смит, Джон Винер, Патрик Варбертон, Алек Салкин, Ральф Гармен

Сюжет фильма

Гриффины - среднестатистическая американская семья во главе с папой - дегенератом. Плюс явно интеллектуальный, пьющий пёс неясной породы и страдающий акромегалией и социопатией младенец Стю (хотя не очень - то похоже, чтоб он действительно от этого страдал). Когда в доме Гриффинов отключают электричество Питер решает поведать своей семье величайшую из когда-либо рассказанных историй: историю Звездных Воин! Принцесса Лея (Лоис) попадает в плен к Дарту Вейдеру (Стьюи) и его злым Штурмовикам; C-3PO (Куэгмайр) и R2-D2 (Кливленд) сбегают, что бы найти единственного человека, способного помочь Альянсу. На своем пути сквозь пустыни планеты Татуин, C-3PO и R2-D2 находят дополнительных помощников в лице Оби-Ван Кеноби (Криппи), Люк Скайвокер (Крис), Хен Соло (Питер) и Чубакка (Брайан) и возвращаются на Звезду Смерти, чтобы завершит эту эпическую межзвездную борьбу со злом...





Дополнительно

Выпущено: США
Продолжительность: 00:45:36

Файл

Качество: BDRip 720p (исходник BD-Remux)
Видео: 960x720, 2050 Kbps, 23.976 кадр/сек, AVC, x264, 4.3, 0.124 Бит/(Пиксели*Кадры)
Аудио: AC-3, 640 Кбит/сек, 6 канала(ов), 48,0 КГц |Многоголосый закадровый, Filiza Studio|
Аудио: AC-3, 640 Кбит/сек, 6 канала(ов), 48,0 КГц |Двухголосый закадровый, Петр Гланц и Инна Королева|
Аудио: AC-3, 384 Кбит/сек, 6 канала(ов), 48,0 КГц |Многоголосый закадровый, R5 20-TH Century Fox Television|
Аудио: AC-3, 640 Кбит/сек, 6 канала(ов), 48,0 КГц |English|
Чаптеры: Есть
Субтитры: Русские (Полные)
Размер: 1.45 Гб



Format : Matroska
Format version : Version 4 / Version 2
File size : 1.45 GiB
Duration : 47mn 36s
Overall bit rate : 4 357 Kbps
Movie name : Гриффины.Голубой.урожай.(2007).BDRip720p.от.[NoLimits-Team].[mitrian]
Encoded date : UTC 2010-02-22 21:41:31
Writing application : mkvmerge v5.9.0 ('On The Loose') built on Dec 9 2012 15:37:01
Writing library : libebml v1.3.0 + libmatroska v1.4.0

Video
ID : 1
Format : AVC
Format/Info : Advanced Video Codec
Format profile : High@L4.1
Format settings, CABAC : Yes
Format settings, ReFrames : 12 frames
Muxing mode : Header stripping
Codec ID : V_MPEG4/ISO/AVC
Duration : 47mn 36s
Bit rate : 2 050 Kbps
Width : 960 pixels
Height : 720 pixels
Display aspect ratio : 4:3
Frame rate mode : Constant
Frame rate : 23.976 fps
Color space : YUV
Chroma subsampling : 4:2:0
Bit depth : 8 bits
Scan type : Progressive
Bits/(Pixel*Frame) : 0.124
Stream size : 670 MiB (45%)
Title : Гриффины Голубой урожай (2007) BDRip 720p от NoLimits-Team
Writing library : x264 core 129 r2230 1cffe9f
Encoding settings : cabac=1 / ref=12 / deblock=1:0:0 / analyse=0x3:0x113 / me=umh / subme=10 / psy=1 / psy_rd=1.00:0.10 / mixed_ref=1 / me_range=32 / chroma_me=1 / trellis=2 / 8x8dct=1 / cqm=0 / deadzone=21,11 / fast_pskip=0 / chroma_qp_offset=-3 / threads=6 / lookahead_threads=1 / sliced_threads=0 / slices=4 / nr=0 / decimate=0 / interlaced=0 / bluray_compat=0 / constrained_intra=0 / bframes=5 / b_pyramid=2 / b_adapt=2 / b_bias=0 / direct=3 / weightb=1 / open_gop=0 / weightp=2 / keyint=240 / keyint_min=24 / scenecut=40 / intra_refresh=0 / rc_lookahead=60 / rc=2pass / mbtree=1 / bitrate=2050 / ratetol=2.0 / qcomp=0.60 / qpmin=0 / qpmax=51 / qpstep=4 / cplxblur=20.0 / qblur=0.5 / ip_ratio=1.40 / aq=1:1.00
Language : English
Default : Yes
Forced : No

Audio #1
ID : 2
Format : AC-3
Format/Info : Audio Coding 3
Mode extension : CM (complete main)
Format settings, Endianness : Big
Muxing mode : Header stripping
Codec ID : A_AC3
Duration : 47mn 36s
Bit rate mode : Constant
Bit rate : 640 Kbps
Channel(s) : 6 channels
Channel positions : Front: L C R, Side: L R, LFE
Sampling rate : 48.0 KHz
Bit depth : 16 bits
Compression mode : Lossy
Stream size : 218 MiB (15%)
Title : Filiza Studio
Language : Russian
Default : Yes
Forced : No

Audio #2
ID : 3
Format : AC-3
Format/Info : Audio Coding 3
Mode extension : CM (complete main)
Format settings, Endianness : Big
Muxing mode : Header stripping
Codec ID : A_AC3
Duration : 47mn 36s
Bit rate mode : Constant
Bit rate : 640 Kbps
Channel(s) : 6 channels
Channel positions : Front: L C R, Side: L R, LFE
Sampling rate : 48.0 KHz
Bit depth : 16 bits
Compression mode : Lossy
Stream size : 218 MiB (15%)
Title : Петр Гланц и Инна Королева
Language : Russian
Default : No
Forced : No

Audio #3
ID : 4
Format : AC-3
Format/Info : Audio Coding 3
Mode extension : CM (complete main)
Format settings, Endianness : Big
Muxing mode : Header stripping
Codec ID : A_AC3
Duration : 47mn 36s
Bit rate mode : Constant
Bit rate : 384 Kbps
Channel(s) : 6 channels
Channel positions : Front: L C R, Side: L R, LFE
Sampling rate : 48.0 KHz
Bit depth : 16 bits
Compression mode : Lossy
Stream size : 131 MiB (9%)
Title : 20-TH Century Fox Television
Language : Russian
Default : No
Forced : No

Audio #4
ID : 5
Format : AC-3
Format/Info : Audio Coding 3
Mode extension : CM (complete main)
Format settings, Endianness : Big
Muxing mode : Header stripping
Codec ID : A_AC3
Duration : 47mn 36s
Bit rate mode : Constant
Bit rate : 640 Kbps
Channel(s) : 6 channels
Channel positions : Front: L C R, Side: L R, LFE
Sampling rate : 48.0 KHz
Bit depth : 16 bits
Compression mode : Lossy
Stream size : 218 MiB (15%)
Title : English
Language : English
Default : No
Forced : No

Text
ID : 6
Format : UTF-8
Codec ID : S_TEXT/UTF8
Codec ID/Info : UTF-8 Plain Text
Language : Russian
Default : Yes
Forced : No

Menu
00:00:00.000 : en:00:00:00.000
00:05:41.716 : en:00:05:41.716
00:09:19.475 : en:00:09:19.475
00:14:01.048 : en:00:14:01.048
00:21:34.209 : en:00:21:34.209
00:27:06.958 : en:00:27:06.958
00:32:56.474 : en:00:32:56.474
00:38:09.203 : en:00:38:09.203
00:43:39.366 : en:00:43:39.366
00:46:41.548 : en:00:46:41.548




Информация о фильме

Название: Гриффины: Что-то, что-то, что-то, тёмная сторона
Оригинальное название: Family Guy Presents: Something, Something, Something, Dark Side
Год выхода: 2009
Жанр: комедия, мультфильм
Режиссер: Доминик Полчино
В ролях: Х. Джон Бенджами, Алекс Борштейн, Джон Дж. Бреннан, Д. С. Дуглас, Сет Грин, Майк Генри, Сет МакФарлэйн, Дэнни Смит, Патрик Ворбёртон, Джеймс Вудс

О фильме

Сага продолжается. Люк (Крис), Лея (Лоис), Хан Соло (Питер) и Чубакка (Брайан) прячутся от имперского звёздного флота, во главе которого коварный, проворный и весьма маленький злой лорд Дарт Вейдер. Вместе с повстанцами они создали новую секретную базу в системе Хот. Молодой Скайуокер должен послушаться совета погибшего похотливого наставника Оби-Вана Кеноби (Герберт) и научиться владеть "фарсом" под наставничеством учителя джедая Йоды (Карл), что бы спасти галактику раз и на всегда.





Дополнительно

Выпущено: CША
Продолжительность: 00:54:43

Файл

Качество: BDRip 720p (исходник BD-Remux)
Видео: 960x720, 2700 Kbps, 23.976 кадр/сек, AVC, x264, 4.3, 0.163 Бит/(Пиксели*Кадры)
Аудио: AC-3, 448 Кбит/сек, 6 канала(ов), 48,0 КГц |Многоголосый закадровый, Filiza Studio|
Аудио: AC-3, 640 Кбит/сек, 6 канала(ов), 48,0 КГц |English|
Чаптеры: Есть
Субтитры: Русские (Полные)
Размер: 1.45 Гб





Информация о фильме

Название: Гриффины: Это ловушка!
Оригинальное название: Family Guy Presents: It's a Trap!
Год выпуска: 2010
Страна: США
Жанр: фантастика, пародия
Режиссер: Питер Шин / Peter Shin
В ролях: Сет МакФарлейн, Алекс Борштейн, Сет Грин, Мила Кунис, Майк Генри и другие.

Описание

Это последняя часть пародий на Звездные Войны с Гриффинами. В этой зрелищной и насыщенной действием финальной части Люк Скайвокер (Крис) и Принцесса Лея (Лоис) должны полететь на Татуин чтобы освободить Хана Соло (Питер) из рук Джаббы (Джо), самого отвратительного и ужасного гангстера в галактике.Объединившись, команда с помощью племени Эвоков сразится с имперскими силами на Эндоре. Тем временем Император (Картер Пьютершмидт) и Дарт Вейдер (Стьюи) сговорятся склонить Люка к темной стороне силы и юный Скайуокер решит возрадить дух Джедая в своем отце. Галактическая гражданская война никогда не была такой жестокой, когда повстанцы объединятся для атаки на незащищенную и не завершенную Звезду Смерти, что решит судьбу галактики.





Дополнительно

Выпущено: CША
Продолжительность: 00:56:35

Файл

Качество: BDRip 1080p (исходник BD-Remux)
Видео: 1280x720, 2191 Kbps, 23.976 кадр/сек, AVC, x264, 16.9, 0.099 Бит/(Пиксели*Кадры)
Аудио: AC-3, 640 Кбит/сек, 6 канала(ов), 48,0 КГц |Многоголосый закадровый, Filiza Studio|
Аудио: AC-3, 192 Кбит/сек, 2 канала(ов), 48,0 КГц |Многоголосый закадровый|
Аудио: AC-3, 640 Кбит/сек, 6 канала(ов), 48,0 КГц |English|
Чаптеры: Есть
Субтитры: Русские (Полные)
Размер: 2.17 Гб



[spoiler="MediaInfo"]Format : Matroska
Format version : Version 4 / Version 2
File size : 1.45 GiB
Duration : 56mn 35s
Overall bit rate : 3 663 Kbps
Movie name : Гриффины.Это.ловушка.(2010).BDRip720p.от.[NoLimits-Team].[mitrian]
Encoded date : UTC 2010-02-22 21:41:31
Writing application : mkvmerge v5.9.0 ('On The Loose') built on Dec 9 2012 15:37:01
Writing library : libebml v1.3.0 + libmatroska v1.4.0

Video
ID : 1
Format : AVC
Format/Info : Advanced Video Codec
Format profile : High@L4.1
Format settings, CABAC : Yes
Format settings, ReFrames : 9 frames
Muxing mode : Header stripping
Codec ID : V_MPEG4/ISO/AVC
Duration : 56mn 35s
Bit rate : 2 191 Kbps
Width : 1 280 pixels
Height : 720 pixels
Display aspect ratio : 16:9
Frame rate mode : Constant
Frame rate : 23.976 fps
Color space : YUV
Chroma subsampling : 4:2:0
Bit depth : 8 bits
Scan type : Progressive
Bits/(Pixel*Frame) : 0.099
Stream size : 857 MiB (58%)
Title : Гриффины Это ловушка! (2010) BDRip 720p от NoLimits-Team
Writing library : x264 core 129 r2230 1cffe9f
Encoding settings : cabac=1 / ref=9 / deblock=1:0:0 / analyse=0x3:0x113 / me=umh / subme=10 / psy=1 / psy_rd=1.00:0.10 / mixed_ref=1 / me_range=32 / chroma_me=1 / trellis=2 / 8x8dct=1 / cqm=0 / deadzone=21,11 / fast_pskip=0 / chroma_qp_offset=-3 / threads=6 / lookahead_threads=1 / sliced_threads=0 / slices=4 / nr=0 / decimate=0 / interlaced=0 / bluray_compat=0 / constrained_intra=0 / bframes=5 / b_pyramid=2 / b_adapt=2 / b_bias=0 / direct=3 / weightb=1 / open_gop=0 / weightp=2 / keyint=240 / keyint_min=24 / scenecut=40 / intra_refresh=0 / rc_lookahead=60 / rc=2pass / mbtree=1 / bitrate=2191 / ratetol=2.0 / qcomp=0.60 / qpmin=0 / qpmax=51 / qpstep=4 / cplxblur=20.0 / qblur=0.5 / ip_ratio=1.40 / aq=1:1.00
Language : English
Default : Yes
Forced : No

Audio #1
ID : 2
Format : AC-3
Format/Info : Audio Coding 3
Mode extension : CM (complete main)
Format settings, Endianness : Big
Muxing mode : Header stripping
Codec ID : A_AC3
Duration : 56mn 35s
Bit rate mode : Constant
Bit rate : 640 Kbps
Channel(s) : 6 channels
Channel positions : Front: L C R, Side: L R, LFE
Sampling rate : 48.0 KHz
Bit depth : 16 bits
Compression mode : Lossy
Stream size : 259 MiB (17%)
Title : FiLiZa
Language : Russian
Default : Yes
Forced : No

Audio #2
ID : 3
Format : AC-3
Format/Info : Audio Coding 3
Mode extension : CM (complete main)
Format settings, Endianness : Big
Muxing mode : Header stripping
Codec ID : A_AC3
Duration : 56mn 35s
Bit rate mode : Constant
Bit rate : 192 Kbps
Channel(s) : 2 channels
Channel positions : Front: L R
Sampling rate : 48.0 KHz
Bit depth : 16 bits
Compression mode : Lossy
Stream size : 77.7 MiB (5%)
Title : MVO
Language : Russian
Default : No
Forced : No

Audio #3
ID : 4
Format : AC-3
Format/Info : Audio Coding 3
Mode extension : CM (complete main)
Format settings, Endianness : Big
Muxing mode : Header stripping
Codec ID : A_AC3
Duration : 56mn 35s
Bit rate mode : Constant
Bit rate : 640 Kbps
Channel(s) : 6 channels
Channel positions : Front: L C R, Side: L R, LFE
Sampling rate : 48.0 KHz
Bit depth : 16 bits
Compression mode : Lossy
Stream size : 259 MiB (17%)
Title : Eng
Language : English
Default : No
Forced : No

Text
ID : 5
Format : UTF-8
Codec ID : S_TEXT/UTF8
Codec ID/Info : UTF-8 Plain Text
Language : Russian
Default : Yes
Forced : No

Menu
00:00:00.000 : en:00:00:00.000
00:10:00.000 : en:00:10:00.000
00:20:00.000 : en:00:20:00.000
00:30:00.000 : en:00:30:00.000
00:40:00.000 : en:00:40:00.000
00:50:00.000 : en:00:50:00.000


Релиз Группа | Автор Рипа:
[/spoiler][/spoiler]



   Похожие торренты   Торрент   Размер 
В этой теме нет новых непрочитанных сообщений. Репортаж. Трилогия / [Rec]. Trilogy (2007-2011) DVD9 + 2xDVD5 от New-Team | D | Лицензия

31 | 35

12.78 ГБ

В этой теме нет новых непрочитанных сообщений. Час пик : Трилогия / Rush Hour : Trilogy (1998-2007) BDRip 720p от R.G. HD-Films | 60 fps

199 | 46

11.24 ГБ

В этой теме нет новых непрочитанных сообщений. S.T.A.L.K.E.R. - Трилогия / S.T.A.L.K.E.R. - Trilogy (2007-2010) PC | RePack от R.G. Games

127 | 88

13.47 ГБ

В этой теме нет новых непрочитанных сообщений. Бладрейн. Трилогия / BloodRayne. Trilogy (2005-2010) 2xDVD9 + DVD5 от New-Team | D, P | Лицензия

24 | 15

14.78 ГБ

В этой теме нет новых непрочитанных сообщений. Я плюю на ваши могилы: Трилогия / I Spit on Your Grave: Trilogy (2010-2015) BDRip 720p | D, А, Р, L1, L2, L

50 | 7

13.41 ГБ

В этой теме нет новых непрочитанных сообщений. История игрушек: Трилогия / Toy Story: Trilogy (1995-2010) BDRip 720p от HELLYWOOD | Лицензия

63 | 16

9.7 ГБ

В этой теме нет новых непрочитанных сообщений. Заложница : Трилогия / Taken : Trilogy (2007-2014) BDRip-AVC от R.G. HD-Films | 60 fps

831 | 279

10.02 ГБ




Вы не можете начинать темы
Вы не можете отвечать на сообщения
Вы не можете редактировать свои сообщения
Вы не можете удалять свои сообщения
Вы не можете добавлять вложения

Перейти:  
 Вход
ppkBB3cker v.2 © 2008-2014 @ PPK
[ Time : 0.039s | 17 Queries | GZIP : Off ]

cron