img image001 image001 image001 image001 image001 image001 image001 image001 image001 image001 image001 image001 image001 image001 image001 image001

Planets Sun Sun Sun
Статистика раздачи
Автор: Снежана | Размер: 2.18 ГБ | Добавлен: 27 июл 2013
Раздают: 28    Качают: 6
Скачать торрент
Скачать торрент
Описание торрента

СообщениеДобавлено: 27 июл 2013 

«Naughty, nice. You better believe.»



#77

Год выпуска: 2012
Страна: США, DreamWorks Animation
Жанр: мультфильм, фэнтези, приключения, семейный
Продолжительность: 01:37:11

Перевод: Профессиональный (дублированный)
Cубтитры: русский, английский
Оригинальная аудиодорожка: английский

Режиссер: Питер Рэмси / Peter Ramsey

В ролях: Крис Пайн, Алек Болдуин, Джуд Лоу, Айла Фишер, Хью Джекман, Дакота Гойо, Хамани Гриффин, Камиль МакФедден, Джорджи Грив, Эмили Нордвинд...

Описание: Когда злой дух Кромешник посягает на самое дорогое — детские мечты, Северянин, Ледяной Джек, Кролик, Зубная Фея и Песочный Человек впервые объединяются, чтобы создать команду Хранителей снов…





Исходник: Blu-ray 1080p
Качество: BDRip
Формат: AVI

Видео: 720x400 (16:9), 23.976 fps, XviD ~ 2304 kbps avg, 0.334 bit/pixel
Аудио 1: 48 kHz, AC3 6 ch, 448 kbps, русский
Аудио 2: 48 kHz, AC3 6 ch, 448 kbps, английский
Формат субтитров: SoftSub (srt)

General
Complete name : Hraniteli.snov.2012.D.BDRip_[Youtracker]_by_avproh.avi
Format : AVI
Format/Info : Audio Video Interleave
Format profile : OpenDML
File size : 2.18 GiB
Duration : 1h 37mn
Overall bit rate : 3 218 Kbps
Writing application : VirtualDubModRus 1.5.10.2 (build 2542/release)
Writing library : VirtualDubMod build 2542/release

Video
ID : 0
Format : MPEG-4 Visual
Format profile : Advanced Simple@L5
Format settings, BVOP : 1
Format settings, QPel : No
Format settings, GMC : No warppoints
Format settings, Matrix : Custom
Codec ID : XVID
Codec ID/Hint : XviD
Duration : 1h 37mn
Bit rate : 2 304 Kbps
Width : 720 pixels
Height : 400 pixels
Display aspect ratio : 16:9
Frame rate : 23.976 fps
Color space : YUV
Chroma subsampling : 4:2:0
Bit depth : 8 bits
Scan type : Progressive
Compression mode : Lossy
Bits/(Pixel*Frame) : 0.334
Stream size : 1.56 GiB (72%)
Writing library : XviD 65

Audio #1
ID : 1
Format : AC-3
Format/Info : Audio Coding 3
Mode extension : CM (complete main)
Format settings, Endianness : Big
Codec ID : 2000
Duration : 1h 37mn
Bit rate mode : Constant
Bit rate : 448 Kbps
Channel(s) : 6 channels
Channel positions : Front: L C R, Side: L R, LFE
Sampling rate : 48.0 KHz
Bit depth : 16 bits
Compression mode : Lossy
Stream size : 311 MiB (14%)
Alignment : Split accross interleaves
Interleave, duration : 42 ms (1.00 video frame)
Interleave, preload duration : 500 ms

Audio #2
ID : 2
Format : AC-3
Format/Info : Audio Coding 3
Mode extension : CM (complete main)
Format settings, Endianness : Big
Codec ID : 2000
Duration : 1h 37mn
Bit rate mode : Constant
Bit rate : 448 Kbps
Channel(s) : 6 channels
Channel positions : Front: L C R, Side: L R, LFE
Sampling rate : 48.0 KHz
Bit depth : 16 bits
Compression mode : Lossy
Stream size : 311 MiB (14%)
Alignment : Split accross interleaves
Interleave, duration : 42 ms (1.00 video frame)
Interleave, preload duration : 500 ms





   Похожие торренты   Торрент   Размер 
В этой теме нет новых непрочитанных сообщений. Хранители снов / Rise of the Guardians (2012) BDRip-AVC от New-Team | D | Лицензия

505 | 31

1.45 ГБ

В этой теме нет новых непрочитанных сообщений. Хранители снов / Rise of the Guardians (2012) BDRip 720p от HELLYWOOD | Лицензия

546 | 29

5.74 ГБ

В этой теме нет новых непрочитанных сообщений. Хранители снов / Rise of the Guardians (2012) BDRip 1080 | 3D-Video | HSBS | Лицензия | 60 FPS

131 | 31

12.77 ГБ

В этой теме нет новых непрочитанных сообщений. Хранители снов / Rise of the Guardians (2012) BDRip 720p от Leonardo and Scarabey | Лицензия

423 | 25

4.36 ГБ

В этой теме нет новых непрочитанных сообщений. Хранители снов / Rise of the Guardians (2012) BDRip 1080p от NNNB | 60 fps

230 | 25

7.78 ГБ

В этой теме нет новых непрочитанных сообщений. NG: Хранители сокровищ Египта / Egypt's Treasure Guardians (2016) HDTVRip от Kaztorrents | P1

18 | 1

629.61 МБ

В этой теме нет новых непрочитанных сообщений. Ловец снов / Dreamcatcher (2003) BDRip-AVC от HQCLUB | Лицензия

68 | 13

4.89 ГБ




Вы не можете начинать темы
Вы не можете отвечать на сообщения
Вы не можете редактировать свои сообщения
Вы не можете удалять свои сообщения
Вы не можете добавлять вложения

Перейти:  
 Вход
ppkBB3cker v.2 © 2008-2014 @ PPK
[ Time : 0.034s | 15 Queries | GZIP : Off ]

cron