img image001 image001 image001 image001 image001 image001 image001 image001 image001 image001 image001 image001 image001 image001 image001 image001

Planets Sun Sun Sun
Статистика раздачи
Автор: Снежана | Размер: 7.72 ГБ | Добавлен: 29 окт 2018
Раздают: 5    Качают: 6
Скачать торрент
Скачать торрент
Описание торрента

СообщениеДобавлено: 29 окт 2018 

Разочарование / Disenchantment

Перевод: Любительский (многоголосый), [NewStation]

Субтитры: Английские, русские

Формат: WEB-DL 720p, MKV, H.264, AC3
Страна: США
Режиссер: Мэтт Грейнинг
Жанр: Мультсериал, фэнтези, комедия, приключения

Продолжительность: 10 x ~00:25:00
Год выпуска: 2018
В ролях: Эрик Андре, Мэтт Берри, Джон Ди Маджио, Нат Факсон, Ноэль Филдинг, Дэвид Херман, Эбби Джейкобсон, Морис ЛаМарш, Тресс МакНилл, Билли Уэст

Описание: Действие разворачивается в Средневековье в королевстве Дримландия, где живёт юная принцесса-алкоголичка Бин. Отказавшись выходить замуж, Бин отправляется в путешествие по стране в компании эльфа и демона. По дороге трио встретит множество фантастических тварей и дураков людского происхождения.



Видео: 1280x720 (16:9), 24 fps, AVC (х264) High@L4, ~3320 kbps, 0.150 bit/pixel
Аудио #1: Русский: 48 kHz, AC3 Dolby Digital, 3/2 (L,C,R,l,r) + LFE ch, ~640 kbps
Аудио #1: Английский: 48 kHz, EAC3 Dolby Digital, 3/2 (L,C,R,l,r) + LFE ch, ~640 kbps

Реклама: Отсутствует

Общее
Уникальный идентификатор : 154970414839738705968272302796332361086 (0x7496375BBA2BDF77659A402C597C657E)
Полное имя : F:\NewStation\Disenchantment.S01.WEB-DL.720p.NewStation\Disenchantment.S01E01.WEB-DL.720p.NewStation.mkv
Формат : Matroska
Версия формата : Version 4 / Version 2
Размер файла : 1,13 Гбайт
Продолжительность : 36 м. 10 с.
Режим общего битрейта : Переменный
Общий поток : 4466 Кбит/сек
Дата кодирования : UTC 2018-09-12 19:58:54
Программа кодирования : mkvmerge v25.0.0 ('Prog Noir') 64-bit
Библиотека кодирования : libebml v1.3.6 + libmatroska v1.4.9

Видео
Идентификатор : 1
Формат : AVC
Формат/Информация : Advanced Video Codec
Профиль формата :
Настройки формата : CABAC / 3 Ref Frames
Параметр CABAC формата : Да
Параметр RefFrames формата : 3 кадра
Идентификатор кодека : V_MPEG4/ISO/AVC
Продолжительность : 36 м. 10 с.
Вид битрейта : Переменный
Битрейт : 3320 Кбит/сек
Максимальный битрейт : 4980 Кбит/сек
Ширина : 1280 пикселей
Высота : 720 пикселей
Соотношение сторон : 16:9
Режим частоты кадров : Постоянный
Частота кадров : 23,976 (24000/1001) кадра/сек
Цветовое пространство : YUV
Субдискретизация насыщенности : 4:2:0
Битовая глубина : 8 бит
Тип развёртки : Прогрессивная
Бит/(Пиксели*Кадры) : 0.150
Размер потока : 824 Мбайт (71%)
Библиотека кодирования : x264 core 148 r2715 7e75228
Настройки программы : cabac=1 / ref=3 / deblock=1:0:0 / analyse=0x1:0x111 / me=umh / subme=10 / psy=1 / psy_rd=1.00:0.00 / mixed_ref=1 / me_range=24 / chroma_me=1 / trellis=2 / 8x8dct=0 / cqm=0 / deadzone=21,11 / fast_pskip=1 / chroma_qp_offset=-2 / threads=8 / lookahead_threads=1 / sliced_threads=0 / nr=0 / decimate=1 / interlaced=0 / bluray_compat=0 / stitchable=1 / constrained_intra=0 / bframes=2 / b_pyramid=0 / b_adapt=2 / b_bias=0 / direct=3 / weightb=1 / open_gop=0 / weightp=2 / keyint=48 / keyint_min=25 / scenecut=0 / intra_refresh=0 / rc_lookahead=48 / rc=2pass / mbtree=1 / bitrate=3320 / ratetol=1.0 / qcomp=0.50 / qpmin=6 / qpmax=51 / qpstep=4 / cplxblur=20.0 / qblur=0.5 / vbv_maxrate=4980 / vbv_bufsize=6640 / nal_hrd=vbr / filler=0 / ip_ratio=1.40 / aq=1:1.00
Default : Да
Forced : Нет

Аудио #1
Идентификатор : 2
Формат : AC-3
Формат/Информация : Audio Coding 3
Идентификатор кодека : A_AC3
Продолжительность : 36 м. 10 с.
Вид битрейта : Постоянный
Битрейт : 640 Кбит/сек
Каналы : 6 каналов
Расположение каналов : Front: L C R, Side: L R, LFE
Частота : 48,0 КГц
Частота кадров : 31,250 кадров/сек (1536 SPF)
Битовая глубина : 16 бит
Метод сжатия : С потерями
Размер потока : 166 Мбайт (14%)
Заголовок : NewStation
Язык : Russian
ServiceKind/String : Complete Main
Default : Да
Forced : Нет

Аудио #2
Идентификатор : 3
Формат : E-AC-3
Формат/Информация : Enhanced Audio Coding 3
Идентификатор кодека : A_EAC3
Продолжительность : 36 м. 10 с.
Вид битрейта : Постоянный
Битрейт : 640 Кбит/сек
Каналы : 6 каналов
Расположение каналов : Front: L C R, Side: L R, LFE
Частота : 48,0 КГц
Частота кадров : 187,500 кадров/сек (256 SPF)
Метод сжатия : С потерями
Размер потока : 166 Мбайт (14%)
Заголовок : Original
ServiceKind/String : Complete Main
Default : Нет
Forced : Нет

Текст #1
Идентификатор : 4
Формат : UTF-8
Идентификатор кодека : S_TEXT/UTF8
Идентификатор кодека/Информация : UTF-8 Plain Text
Продолжительность : 34 м. 2 с.
Битрейт : 69 бит/сек
ElementCount : 546
Размер потока : 17,3 Кбайт (0%)
Язык : English
Default : Нет
Forced : Нет

Текст #2
Идентификатор : 5
Формат : UTF-8
Идентификатор кодека : S_TEXT/UTF8
Идентификатор кодека/Информация : UTF-8 Plain Text
Продолжительность : 35 м. 0 с.
Битрейт : 56 бит/сек
ElementCount : 408
Размер потока : 14,5 Кбайт (0%)
Язык : Dutch
Default : Нет
Forced : Нет

Текст #3
Идентификатор : 6
Формат : UTF-8
Идентификатор кодека : S_TEXT/UTF8
Идентификатор кодека/Информация : UTF-8 Plain Text
Продолжительность : 35 м. 0 с.
Битрейт : 58 бит/сек
ElementCount : 416
Размер потока : 15,0 Кбайт (0%)
Заголовок : European
Язык : Spanish
Default : Нет
Forced : Нет

Текст #4
Идентификатор : 7
Формат : UTF-8
Идентификатор кодека : S_TEXT/UTF8
Идентификатор кодека/Информация : UTF-8 Plain Text
Продолжительность : 35 м. 0 с.
Битрейт : 58 бит/сек
ElementCount : 412
Размер потока : 15,0 Кбайт (0%)
Язык : French
Default : Нет
Forced : Нет

Текст #5
Идентификатор : 8
Формат : UTF-8
Идентификатор кодека : S_TEXT/UTF8
Идентификатор кодека/Информация : UTF-8 Plain Text
Продолжительность : 35 м. 0 с.
Битрейт : 60 бит/сек
ElementCount : 417
Размер потока : 15,5 Кбайт (0%)
Язык : German
Default : Нет
Forced : Нет






   Похожие торренты   Торрент   Размер 
В этой теме нет новых непрочитанных сообщений. Разочарование, 1 сезон 1-10 серии из 10 / Disenchantment [NewStation] (Мэтт Грейнинг) [2018, Мультсериал, фэнтези, комедия, приключения, WEB-DL 1080p] MVO + Original + RUS, ENG Sub / Мультфильмы (HD/BD Video)

3 | 3

11.4 ГБ

В этой теме нет новых непрочитанных сообщений. Разочарование, 1 сезон 1-10 серии из 10 / Disenchantment [NewStation] (Мэтт Грейнинг) [2018, Мультсериал, фэнтези, комедия, приключения, WEB-DLRip] MVO + Original

10 | 8

4.48 ГБ

В этой теме нет новых непрочитанных сообщений. Разочарование, 1 сезон 1-10 серии из 10 / Disenchantment (Фрэнк Марино) [2018, мультфильм, фэнтези, комедия, приключения, WEB-DLRip 720p] MVO+Original

22 | 14

9.83 ГБ

В этой теме нет новых непрочитанных сообщений. Разочарование, 1 сезон 1-10 серии из 10 / Disenchantment (Фрэнк Марино) [2018, мультфильм, фэнтези, комедия, приключения, WEB-DLRip 1080p] MVO+Original

12 | 10

15.68 ГБ

В этой теме нет новых непрочитанных сообщений. Разочарование, 1 сезон 1-10 серии из 10 / Disenchantment (Фрэнк Марино) [2018, мультфильм, фэнтези, комедия, приключения, WEB-DLRip] MVO

36 | 13

4.31 ГБ

В этой теме нет новых непрочитанных сообщений. Разочарование, 1 сезон 1-10 серий из 10 / Disenchantment (Уэсли Арчер, Фрэнк Марино, Дэвид Д. Ау) [2018, мультфильм, фэнтези, комедия, приключения, WEBDLRip] MVO

83 | 11

4.67 ГБ

В этой теме нет новых непрочитанных сообщений. Лагерь Лагерь, 3 сезон 1-8 серии из 12 / Camp Camp [NewStation] (Джордан Свиерз, Майлз Луна, Керри Шоукросс) [2018, комедия, приключения, WEBRip 1080p] DVO / Мультфильмы (HD/BD Video)

5 | 0

4.13 ГБ




Вы не можете начинать темы
Вы не можете отвечать на сообщения
Вы не можете редактировать свои сообщения
Вы не можете удалять свои сообщения
Вы не можете добавлять вложения

Перейти:  
 Вход
ppkBB3cker v.2 © 2008-2014 @ PPK
[ Time : 0.058s | 15 Queries | GZIP : Off ]

cron