img image001 image001 image001 image001 image001 image001 image001 image001 image001 image001 image001 image001 image001 image001 image001 image001

Planets Sun Sun Sun
Статистика раздачи
Автор: Снежана | Размер: 2.86 ГБ | Добавлен: 24 сен 2018
Раздают: 3    Качают: 0
Скачать торрент
Скачать торрент
Описание торрента

СообщениеДобавлено: 24 сен 2018 

Космические стражи / Space Sentinels

Перевод: Любительский (одноголосый) [Трамвай фильм], cубтитры: отсутствуют
Формат: DVDRip, AVI, XviD, MP3
Страна: США
Режиссер: Хол Сатерлэнд
Жанр: Приключения, фантастика
Продолжительность: 00:22:47
Год выпуска: 1977

Описание: Три супер-героя, имена которых стали легендами - Геркулес, Астрея и Меркурий, под руководством супер-компьютера Страж-1 (Sentinel One) и с помощью забавного робота-оператора Мо, борются с разными злодеями, обладающими высокотехнологичным оружием.

Доп. информация: Этот мультфильм я видел в далеком 1992 году, когда иностранные мульты заставляли нас открывать рот. Показали его всего лишь 1 раз, и только одну серию (восьмую), тогда я на долго запомнил Домино, и трех героев. С того времени я тщетно искал этот сериал, сначала на кассетах, потом, когда появился Интернет в нем, на Ютьюбе, на торрентах, да хоть бы название вспомнить, пока, случайно, летом 2014, не увидел скриншот и изображением трех героев, в одном из блогов посвященному утренним телешоу в США.
Найти Рип тоже долго не мог, спасибо помогли товарищи из сообщества ретро фантастики, которые достали DVD с закрытого трекера.



Видео: 640x480 (1.33:1), 29.970 fps, XviD build 50 ~1237 kbps avg, 0.14 bit/pixel
Аудио: 44.100 kHz, MPEG Layer 3, 2 ch, ~128.00 kbps avg


Format : AVI
Format/Info : Audio Video Interleave
File size : 225 MiB
Duration : 22mn 47s
Overall bit rate : 1 383 Kbps

Video
ID : 0
Format : MPEG-4 Visual
Format profile : Simple@L3
Format settings, BVOP : No
Format settings, QPel : No
Format settings, GMC : No warppoints
Format settings, Matrix : Default (H.263)
Codec ID : XVID
Codec ID/Hint : XviD
Duration : 22mn 47s
Bit rate : 1 237 Kbps
Width : 640 pixels
Height : 480 pixels
Display aspect ratio : 4:3
Frame rate : 29.970 fps
Original frame rate : 29.000 fps
Color space : YUV
Chroma subsampling : 4:2:0
Bit depth : 8 bits
Scan type : Progressive
Compression mode : Lossy
Bits/(Pixel*Frame) : 0.134
Stream size : 202 MiB (89%)
Writing library : XviD 1.2.1 (UTC 2008-12-04)

Audio
ID : 1
Format : MPEG Audio
Format version : Version 1
Format profile : Layer 3
Mode : Joint stereo
Mode extension : MS Stereo
Codec ID : 55
Codec ID/Hint : MP3
Duration : 22mn 46s
Bit rate mode : Constant
Bit rate : 128 Kbps
Channel(s) : 2 channels
Sampling rate : 44.1 KHz
Compression mode : Lossy
Stream size : 20.9 MiB (9%)
Alignment : Aligned on interleaves
Interleave, duration : 26 ms (0.78 video frame)
Writing library : LAME3.98.2









   Похожие торренты   Торрент   Размер 
В этой теме нет новых непрочитанных сообщений. Космические дети / The Space Children (Джек Арнольд) [1958, Фантастика, Семейный, DVDRip] VO

0 | 1

700.84 МБ

В этой теме нет новых непрочитанных сообщений. Стражи Галактики. Часть 2 / Guardians of the Galaxy Vol. 2 (Джеймс Ганн) [2017, фантастика, боевик, приключения, BDRip] DUB / Фантастика

72 | 4

2.18 ГБ

В этой теме нет новых непрочитанных сообщений. Стражи Галактики. Часть 2 / Guardians of the Galaxy Vol. 2 (Джеймс Ганн) [2017, фантастика, боевик, приключения, BDRip] DUB / Фантастика

510 | 12

1.46 ГБ

В этой теме нет новых непрочитанных сообщений. Стражи Галактики. Часть 2 / Guardians of the Galaxy Vol. 2 (Джеймс Ганн) [2017, фантастика, боевик, приключения, BDRip] DUB / Фантастика

18 | 10

2.12 ГБ

В этой теме нет новых непрочитанных сообщений. Стражи Галактики. Часть 2 / Guardians of the Galaxy Vol. 2 (Джеймс Ганн) [2017, фантастика, боевик, приключения, BDRip-AVC] DUB / Фантастика

270 | 11

2.97 ГБ

В этой теме нет новых непрочитанных сообщений. Стражи Галактики. Часть 2 / Guardians of the Galaxy Vol. 2 (Джеймс Ганн) [2017, фантастика, боевик, приключения, BDRip-AVC] DUB / Фантастика

15 | 5

1.46 ГБ

В этой теме нет новых непрочитанных сообщений. Стражи Галактики. Часть 2 / Guardians of the Galaxy Vol. 2 (Джеймс Ганн) [2017, фантастика, боевик, приключения, BDRip-AVC] DUB / Фантастика

22 | 5

2.25 ГБ




Вы не можете начинать темы
Вы не можете отвечать на сообщения
Вы не можете редактировать свои сообщения
Вы не можете удалять свои сообщения
Вы не можете добавлять вложения

Перейти:  
 Вход
ppkBB3cker v.2 © 2008-2014 @ PPK
[ Time : 0.036s | 17 Queries | GZIP : Off ]

cron