img image001 image001 image001 image001 image001 image001 image001 image001 image001 image001 image001 image001 image001 image001 image001 image001

Planets Sun Sun Sun
Статистика раздачи
Автор: Снежана | Размер: 12.56 ГБ | Добавлен: 19 сен 2018
Раздают: 10    Качают: 10
Скачать торрент
Скачать торрент
Описание торрента

СообщениеДобавлено: 19 сен 2018 

Принц-дракон / The Dragon Prince

Перевод: Профессиональный (многоголосый, закадровый) IdeaFilm
Субтитры: отсутствуют
Формат: WEBRip 1080p, MKV, h.264, AC3
Страна: США
Режиссер: Джастин Ричмонд
Жанр: Мультсериал, фантастика, боевик, приключения, семейный
Всего серий: 8
Продолжительность: 8 х ~00:25:00
Год выпуска: 2018

В ролях: Паула Берроуз, Джек Де Сена, Саша Роджен

Описание: Сюжет истории пойдет о двух принцах, которые объединят свои силы с эльфом, которому было поручено убить их. Вместе они начнут своё удивительное путешествие, чтобы улучшить мир людей. В мультсериале вы увидите много экшена, сражений, невероятные приключения героев мультика, а также драконов.

Рейтинг на:

Видео: 1920x1080p (16/9), 23,976 fps, AVC (х264), , ~6691 kbps avg, 0.135 bit/pixel
Аудио #1 Rus: :48 kHz, AC3 Dolby Digital, 3/2 (L,C,R,l,r) + LFE ch, ~384 kbps
Аудио #1 Eng: :48 kHz, AC3 Dolby Digital, 3/2 (L,C,R,l,r) + LFE ch, ~384 kbps

Внимание, присутствует реклама!


Общее
Уникальный идентификатор : 175666105591680971600777727859674042971 (0x84280FB12DE3819182C3EAC9630BD25B)
Полное имя : K:\IdeaFilm\The.Dragon.Prince.S01.WEBRip.1080p\The.Dragon.Prince.S01E01.WEBRip.1080p-IdeaFilm.mkv
Формат : Matroska
Версия формата : Version 4 / Version 2
Размер файла : 1,32 Гбайт
Продолжительность : 25 м. 18 с.
Общий поток : 7450 Кбит/сек
Дата кодирования : UTC 2018-09-17 15:30:32
Программа кодирования : mkvmerge v12.0.0 ('Trust / Lust') 64bit
Библиотека кодирования : libebml v1.3.4 + libmatroska v1.4.5

Видео
Идентификатор : 1
Формат : AVC
Формат/Информация : Advanced Video Codec
Профиль формата :
Настройки формата : CABAC / 4 Ref Frames
Параметр CABAC формата : Да
Параметр RefFrames формата : 4 кадра
Идентификатор кодека : V_MPEG4/ISO/AVC
Продолжительность : 25 м. 18 с.
Битрейт : 6691 Кбит/сек
Ширина : 1920 пикселей
Высота : 1080 пикселей
Соотношение сторон : 16:9
Режим частоты кадров : Постоянный
Частота кадров : 23,976 (24000/1001) кадра/сек
Стандарт вещания : NTSC
Цветовое пространство : YUV
Субдискретизация насыщенности : 4:2:0
Битовая глубина : 8 бит
Тип развёртки : Прогрессивная
Бит/(Пиксели*Кадры) : 0.135
Размер потока : 1,18 Гбайт (90%)
Язык : English
Default : Да
Forced : Нет
Цветовой диапазон : Limited
Основные цвета : BT.709
Характеристики трансфера : BT.709
Коэффициенты матрицы : BT.709

Аудио #1
Идентификатор : 2
Формат : AC-3
Формат/Информация : Audio Coding 3
Идентификатор кодека : A_AC3
Продолжительность : 25 м. 18 с.
Вид битрейта : Постоянный
Битрейт : 384 Кбит/сек
Каналы : 6 каналов
Расположение каналов : Front: L C R, Side: L R, LFE
Частота : 48,0 КГц
Частота кадров : 31,250 кадров/сек (1536 SPF)
Битовая глубина : 16 бит
Метод сжатия : С потерями
Размер потока : 69,5 Мбайт (5%)
Заголовок : IdeaFilm
Язык : Russian
ServiceKind/String : Complete Main
Default : Да
Forced : Нет

Аудио #2
Идентификатор : 3
Формат : AC-3
Формат/Информация : Audio Coding 3
Идентификатор кодека : A_AC3
Продолжительность : 24 м. 38 с.
Битрейт : 384 Кбит/сек
Каналы : 6 каналов
Частота : 48,0 КГц
Частота кадров : 31,250 кадров/сек (1536 SPF)
Метод сжатия : С потерями
Размер потока : 67,7 Мбайт (5%)
Язык : English
Default : Нет
Forced : Нет







   Похожие торренты   Торрент   Размер 
В этой теме нет новых непрочитанных сообщений. Принц-дракон, 1 сезон 1-9 серия из 9 / The Dragon Prince (Джастин Ричмонд) [2018, Мультсериал, фантастика, боевик, приключения, семейный, WEBRip] MVO

15 | 2

3.18 ГБ

В этой теме нет новых непрочитанных сообщений. Принц-дракон, 1 сезон 1-9 серия из 9 / The Dragon Prince (Джастин Ричмонд) [2018, Мультсериал, фантастика, боевик, приключения, семейный, WEBRip 720p] MVO

6 | 2

8.5 ГБ

В этой теме нет новых непрочитанных сообщений. Рик и Морти, 3 сезон 1-5 серия из 10 / Rick and Morty [IdeaFilm] (Пит Мишелс, Джон Райс, Джастин Ройланд) [2017, Комедия, приключения, фантастика, мультсериал, WEBRip 1080p] MVO

5 | 7

6.72 ГБ

В этой теме нет новых непрочитанных сообщений. Рик и Морти, 3 сезон 1-3 серия из 10 / Rick and Morty [IdeaFilm] (Пит Мишелс, Джон Райс, Джастин Ройланд) [2017, Комедия, приключения, фантастика, мультсериал, WEBRip 1080p] MVO

9 | 7

4.07 ГБ

В этой теме нет новых непрочитанных сообщений. Рик и Морти, 3 сезон 1-4 серия из 10 / Rick and Morty [IdeaFilm] (Пит Мишелс, Джон Райс, Джастин Ройланд) [2017, Комедия, приключения, фантастика, мультсериал, WEBRip 1080p] MVO

5 | 5

5.45 ГБ

В этой теме нет новых непрочитанных сообщений. Рик и Морти, 3 сезон 1-10 серия из 10 / Rick and Morty [IdeaFilm] (Пит Мишелс, Джон Райс, Джастин Ройланд) [2017, Комедия, приключения, фантастика, мультсериал, WEBRip 1080p] MVO

11 | 6

13.43 ГБ

В этой теме нет новых непрочитанных сообщений. Рик и Морти, 3 сезон 1-7 серия из 10 / Rick and Morty [IdeaFilm] (Пит Мишелс, Джон Райс, Джастин Ройланд) [2017, Комедия, приключения, фантастика, мультсериал, WEBRip 1080p] MVO

3 | 5

9.36 ГБ




Вы не можете начинать темы
Вы не можете отвечать на сообщения
Вы не можете редактировать свои сообщения
Вы не можете удалять свои сообщения
Вы не можете добавлять вложения

Перейти:  
 Вход
ppkBB3cker v.2 © 2008-2014 @ PPK
[ Time : 0.031s | 16 Queries | GZIP : Off ]

cron