img image001 image001 image001 image001 image001 image001 image001 image001 image001 image001 image001 image001 image001 image001 image001 image001

Planets Sun Sun Sun
Статистика раздачи
Автор: Снежана | Размер: 500.8 МБ | Добавлен: 07 авг 2018
Раздают: 7    Качают: 0
Скачать торрент
Скачать торрент
Описание торрента

СообщениеДобавлено: 07 авг 2018 

Солнечные приключения / Solar Adventure


Перевод: Любительский (одноголосый), субтитры: есть (мои комментарии к мультфильму, отключаемые)
Формат: VHSRip, MKV, XviD, MP3
Страна: США / Южная Корея
Режиссер: Рой Томас
Жанр: анимация, фантастика, боевик
Продолжительность: 00:59:59
Год выпуска: 1985

Описание: В одну северную страну-осажденную крепость, пожаловал инопланетный десант из зеленых человечков с гумконвоем из оружия и технологий. Одновременно, к южному соседу, пожаловали бузотёры-оппозиционеры (с той же планеты), которые начали баламутить школьников южан, рассказывая им об ужасах правящего режима... что-то будет!



Видео: 512x384 (4:3), 29.97fps, Xvid MPEG-4 Simple@L3, ~1 016 kbps , Bit/Pixel 0.172
Аудио: 44.1 kHz, MPEG Layer 3, 2 ch, ~128 kbps

Доп. информация: Мультфильм сочетает в себе рисованную анимацию и небольшой фрагмент художественного (игрового) фильма.
Известен так же как Roboteuwang Sseonsyakeu (в оригинале) или Robot King Sun Shark.


Complete name : solar.adventure.tramvai.film.mkv
Format : Matroska
Format version : Version 2
File size : 501 MiB
Duration : 59 min 58 s
Overall bit rate : 1 167 kb/s
Encoded date : UTC 2013-06-22 11:30:33
Writing application : mkvmerge v4.6.0 ('Still Crazy After All These Years') сборка от Mar 10 2011 02:50:32
Writing library : libebml v1.2.0 + libmatroska v1.1.0

Video
ID : 1
Format : MPEG-4 Visual
Format profile : Simple@L3
Format settings, BVOP : No
Format settings, QPel : No
Format settings, GMC : No warppoints
Format settings, Matrix : Default (H.263)
Codec ID : V_MS/VFW/FOURCC / XVID
Codec ID/Hint : XviD
Duration : 59 min 58 s
Bit rate : 1 016 kb/s
Width : 512 pixels
Height : 384 pixels
Display aspect ratio : 4:3
Frame rate mode : Constant
Frame rate : 29.970 FPS
Original frame rate : 29.000 FPS
Color space : YUV
Chroma subsampling : 4:2:0
Bit depth : 8 bits
Scan type : Progressive
Compression mode : Lossy
Bits/(Pixel*Frame) : 0.172
Stream size : 436 MiB (87%)
Writing library : XviD 1.2.1 (UTC 2008-12-04)
Default : Yes
Forced : No

Audio
ID : 2
Format : MPEG Audio
Format version : Version 1
Format profile : Layer 3
Mode : Joint stereo
Mode extension : MS Stereo
Muxing mode : Header stripping
Codec ID : A_MPEG/L3
Codec ID/Hint : MP3
Duration : 59 min 58 s
Bit rate mode : Constant
Bit rate : 128 kb/s
Channel(s) : 2 channels
Sampling rate : 44.1 kHz
Compression mode : Lossy
Stream size : 54.9 MiB (11%)
Writing library : LAME3.98.2
Default : Yes
Forced : No

Text
ID : 3
Format : UTF-8
Codec ID : S_TEXT/UTF8
Codec ID/Info : UTF-8 Plain Text
Language : Russian
Default : No
Forced : No









   Похожие торренты   Торрент   Размер 
В этой теме нет новых непрочитанных сообщений. Мегалодон / Megalodon (Джеймс Томас) [2018, фантастика, ужасы, приключения, триллер, боевик, DVDRip] MVO

83 | 0

1.37 ГБ

В этой теме нет новых непрочитанных сообщений. Компьютерные воины: приключения начинаются / Computer Warriors: The Adventure Begins (Билл Кройер) [1990, фантастика, VHSRip-AVC] VO

2 | 0

83.75 МБ

В этой теме нет новых непрочитанных сообщений. Приключения Эвоков / The Ewok Adventure (Джон Корти) [1984, Фантастика, Фэнтези, Приключения, Семейный, DVDRip-AVC] MVO / Фантастика

0 | 1

1.58 ГБ

В этой теме нет новых непрочитанных сообщений. Космический охотник: Приключения в Запретной зоне / Spacehunter: Adventures in the Forbidden Zone (Лэмонт Джонсон) [1983, фантастика, боевик, приключения, HDRip-AVC] MVO / Фантастика

52 | 0

1.46 ГБ

В этой теме нет новых непрочитанных сообщений. Человек-муравей и Оса / Ant-Man and the Wasp (Пейтон Рид) [2018, фантастика, боевик, приключения, LowHDRip-AVC] DUB / Фантастика

32 | 3

746.3 МБ

В этой теме нет новых непрочитанных сообщений. Человек-муравей и Оса / Ant-Man and the Wasp (Пейтон Рид ) [2018, фантастика, боевик, приключения , BDRip] DUB / Фантастика

82 | 9

1.46 ГБ

В этой теме нет новых непрочитанных сообщений. Защитники (Сарик Андреасян) [2017, фантастика, фэнтези, боевик, приключения, BDRip] / Фантастика

11 | 0

750.77 МБ




Вы не можете начинать темы
Вы не можете отвечать на сообщения
Вы не можете редактировать свои сообщения
Вы не можете удалять свои сообщения
Вы не можете добавлять вложения

Перейти:  
 Вход
ppkBB3cker v.2 © 2008-2014 @ PPK
[ Time : 0.015s | 16 Queries | GZIP : Off ]

cron