img image001 image001 image001 image001 image001 image001 image001 image001 image001 image001 image001 image001 image001 image001 image001 image001

Planets Sun Sun Sun
Статистика раздачи
Автор: PriZraK | Размер: 7.75 ГБ | Добавлен: 20 июн 2018
Раздают: 15    Качают: 8
Скачать торрент
Скачать торрент
Описание торрента

СообщениеДобавлено: 20 июн 2018 

Лощина / The Hollow


Перевод: Профессиональный (многоголосый, закадровый) IdeaFilm
Субтитры: отсутствуют
Формат: WEB-DLRip 720p, MKV, H.264, AC3
Страна: США
Режиссер: Джош Мепхем, Грег Салливан
Жанр: Мультфильм, фантастика, драма
Всего серий: 10
Продолжительность: 10 x ~ 00:24:00
Год выпуска: 2018

В ролях: Эшли Болл, Коннор Парнолл, Адриан Петрив, Марк Хилдрет, Диана Каарина, Джесси Мосс, Алекс Бармия, Николь Оливер, Йен Джеймс Корлетт, Майкл Дэйнджерфилд

Описание: Подростки Адам, Кай и Мира просыпаются в незнакомом подземном бункере и должны отыскать дорогу домой. На этом пути им встретятся обитатели странных городов, таинственные временные порталы и опасные существа.



Видео: 1280x720 (16:9), 23,976 fps, AVC (х264), , ~3950 kbps avg, 0.179 bit/pixel
Аудио #1 Rus: 48 kHz, AC3 Dolby Digital, 3/2 (L,C,R,l,r) + LFE ch, ~384 kbps
Аудио #2 Eng: 48 kHz, AC3 Dolby Digital, 3/2 (L,C,R,l,r) + LFE ch, ~384 kbps

Внимание, присутствует реклама!


Video
ID : 1
Format : AVC
Format/Info : Advanced Video Codec
Format profile :
Format settings, CABAC : Yes
Format settings, RefFrames : 4 frames
Codec ID : V_MPEG4/ISO/AVC
Duration : 23 min 34 s
Bit rate : 3 950 kb/s
Width : 1 280 pixels
Height : 720 pixels
Display aspect ratio : 16:9
Frame rate mode : Constant
Frame rate : 23.976 (24000/1001) FPS
Standard : NTSC
Color space : YUV
Chroma subsampling : 4:2:0
Bit depth : 8 bits
Scan type : Progressive
Bits/(Pixel*Frame) : 0.179
Stream size : 666 MiB (84%)
Language : English
Default : Yes
Forced : No
Color range : Limited
Color primaries : BT.709
Transfer characteristics : BT.709
Matrix coefficients : BT.709

Audio #1
ID : 2
Format : AC-3
Format/Info : Audio Coding 3
Format settings, Endianness : Big
Codec ID : A_AC3
Duration : 23 min 34 s
Bit rate mode : Constant
Bit rate : 384 kb/s
Channel(s) : 6 channels
Channel positions : Front: L C R, Side: L R, LFE
Sampling rate : 48.0 kHz
Frame rate : 31.250 FPS (1536 SPF)
Bit depth : 16 bits
Compression mode : Lossy
Stream size : 64.7 MiB (8%)
Title : IDEAFILM
Language : Russian
Service kind : Complete Main
Default : Yes
Forced : No

Audio #2
ID : 3
Format : AC-3
Format/Info : Audio Coding 3
Codec ID : A_AC3
Duration : 22 min 54 s
Bit rate : 384 kb/s
Channel(s) : 6 channels
Sampling rate : 48.0 kHz
Frame rate : 31.250 FPS (1536 SPF)
Compression mode : Lossy
Stream size : 62.9 MiB (8%)
Language : English
Default : No
Forced : No







   Похожие торренты   Торрент   Размер 
В этой теме нет новых непрочитанных сообщений. Лощина, 1 сезон 1-10 серии из 10 / The Hollow (Джош Мепхем, Грег Салливан) [2018, мультфильм, фантастика, драма, WEB-DLRip 1080p] MVO+Original / Мультфильмы (HD/BD Video)

4 | 2

12.65 ГБ

В этой теме нет новых непрочитанных сообщений. Лощина, 1 сезон 1-10 серии из 10 / The Hollow (Джош Мепхем, Грег Салливан) [2018, мультфильм, фантастика, драма, WEB-DLRip] MVO+Original

18 | 2

3.57 ГБ

В этой теме нет новых непрочитанных сообщений. Братья Вентура, 7 сезон 1-6 серии из 8 / The Venture Bros. (Кристофер Маккаллок, Джон Шнепп, Ки-Ён Пай) [2018, мультфильм, фантастика, комедия, WEB-DLRip 720p] MVO+Original / Мультфильмы (HD/BD Video)

1 | 0

4.81 ГБ

В этой теме нет новых непрочитанных сообщений. Братья Вентура, 7 сезон 1-10 серии из 10 / The Venture Bros. (Кристофер Маккаллок, Джон Шнепп, Ки-Ён Пай) [2018, мультфильм, фантастика, комедия, WEB-DLRip 720p] MVO+Original / Мультфильмы (HD/BD Video)

2 | 0

7.99 ГБ

В этой теме нет новых непрочитанных сообщений. Братья Вентура, 7 сезон 1-7 серии из 10 / The Venture Bros. (Кристофер Маккаллок, Джон Шнепп, Ки-Ён Пай) [2018, мультфильм, фантастика, комедия, WEB-DLRip 720p] MVO+Original / Мультфильмы (HD/BD Video)

1 | 0

5.6 ГБ

В этой теме нет новых непрочитанных сообщений. Братья Вентура, 7 сезон 1-6 серии из 8 / The Venture Bros. (Кристофер Маккаллок, Джон Шнепп, Ки-Ён Пай) [2018, мультфильм, фантастика, комедия, WEB-DLRip 1080p] MVO+Original / Мультфильмы (HD/BD Video)

0 | 1

7.63 ГБ

В этой теме нет новых непрочитанных сообщений. Братья Вентура, 7 сезон 1-10 серии из 10 / The Venture Bros. (Кристофер Маккаллок, Джон Шнепп, Ки-Ён Пай) [2018, мультфильм, фантастика, комедия, WEB-DLRip 1080p] MVO+Original / Мультфильмы (HD/BD Video)

3 | 0

12.68 ГБ




Вы не можете начинать темы
Вы не можете отвечать на сообщения
Вы не можете редактировать свои сообщения
Вы не можете удалять свои сообщения
Вы не можете добавлять вложения

Перейти:  
 Вход
ppkBB3cker v.2 © 2008-2014 @ PPK
[ Time : 0.023s | 15 Queries | GZIP : Off ]

cron