img image001 image001 image001 image001 image001 image001 image001 image001 image001 image001 image001 image001 image001 image001 image001 image001

Planets Sun Sun Sun
Статистика раздачи
Автор: Nickolas3434 | Размер: 16.61 ГБ | Добавлен: 03 июл 2017
Раздают: 5    Качают: 5
Скачать торрент
Скачать торрент
Описание торрента

СообщениеДобавлено: 03 июл 2017 

Информация о фильме
Название: История игрушек
Оригинальное название: Toy Story
Год выхода: 1995
Жанр: мультфильм, семейный, полнометражный
Режиссер: Джон Лассетер
В ролях: Том Хэнкс, Тим Аллен, Дон Риклз, Джим Варни, Уоллес Шон, Джон Ратценбергер, Энни Поттс, Джон Моррис, Эрик фон Деттен, Лори Меткаф, Сара Фриман, Пенн Джиллетт
О фильме:
Каждый ребенок верит, что когда он оставляет свои игрушки одни, они начинают заниматься своими делами. Этот мультипликационный фильм позволяет убедиться им в своей правоте. Основная идея фильма — каждая игрушка боится надоесть, стать забытой, замененной другой, так как весь смысл их существования — доставлять счастье своим хозяевам.


Страна: США
Студия: Walt Disney Pictures, Pixar Animation Studios
Продолжительность: 01:21:05
Перевод: Дублированный
Файл
Кодек: H.264
Качество: BDRemux 1080p
Видео: 1920x1080, 23.976 fps, MPEG-4 AVC, ~34000 kbps
Аудио #1: Английский / DTS-HD Master Audio / 48 KHz / 5.1 ch / 6912 kbps Kbps (Original)
Аудио #2: Украинский / AC3 / 48 KHz / 5.1 ch / 640 Kbps (Дубляж - BD CEE)
Аудио #3: Русский / AC3 / 48 KHz / 5.1 ch / 640 Kbps (Дубляж - BD 3D)
Video
ID : 1
Format : AVC
Format/Info : Advanced Video Codec
Format profile : High@L4.1
Format settings, CABAC : Yes
Format settings, ReFrames : 4 frames
Codec ID : V_MPEG4/ISO/AVC
Duration : 1 h 21 min
Bit rate mode : Variable
Maximum bit rate : 34.0 Mb/s
Width : 1 920 pixels
Height : 1 080 pixels
Display aspect ratio : 16:9
Frame rate mode : Constant
Frame rate : 23.976 (24000/1001) FPS
Color space : YUV
Chroma subsampling : 4:2:0
Bit depth : 8 bits
Scan type : Progressive
Default : Yes
Forced : No
Color range : Limited
Color primaries : BT.709
Transfer characteristics : BT.709
Matrix coefficients : BT.709
Statistics Tags Issue : mkvmerge v12.0.0 ('Trust / Lust') 64bit 2017-06-20 12:30:03 / mkvmerge v6.0.0 ('Coming Up For Air') built on Jan 20 2013 09:52:00 2017-06-20 13:12:19
FromStats_BitRate : 23602030
FromStats_Duration : 01:21:04.902000000
FromStats_FrameCount : 116641
FromStats_StreamSize : 14352695860
Audio #1
ID : 2
Format : DTS
Format/Info : Digital Theater Systems
Format profile : MA / ES Matrix / Core
Mode : 16
Format settings, Endianness : Big
Codec ID : A_DTS
Duration : 1 h 21 min
Bit rate mode : Variable / Constant / Constant
Bit rate : Unknown / 1 509 kb/s / 1 509 kb/s
Channel(s) : 7 channels / 7 channels / 6 channels
Channel positions : Front: L C R, Side: L R, Back: C, LFE / Front: L C R, Side: L R, Back: C, LFE / Front: L C R, Side: L R, LFE
Sampling rate : 48.0 kHz
Frame rate : 93.750 FPS (512 spf)
Bit depth : 24 bits
Compression mode : Lossless / Lossy / Lossy
Language : English
Default : Yes
Forced : No
Statistics Tags Issue : mkvmerge v12.0.0 ('Trust / Lust') 64bit 2017-06-20 12:30:03 / mkvmerge v6.0.0 ('Coming Up For Air') built on Jan 20 2013 09:52:00 2017-06-20 13:12:19
FromStats_BitRate : 4442836
FromStats_Duration : 01:21:04.907000000
FromStats_FrameCount : 456085
FromStats_StreamSize : 2701748400
Audio #2
ID : 3
Format : AC-3
Format/Info : Audio Coding 3
Mode extension : CM (complete main)
Format settings, Endianness : Big
Codec ID : A_AC3
Duration : 1 h 21 min
Bit rate mode : Constant
Bit rate : 640 kb/s
Channel(s) : 6 channels
Channel positions : Front: L C R, Side: L R, LFE
Sampling rate : 48.0 kHz
Frame rate : 31.250 FPS (1536 spf)
Bit depth : 16 bits
Compression mode : Lossy
Stream size : 371 MiB (2%)
Language : Ukrainian
Default : No
Forced : No
Statistics Tags Issue : mkvmerge v12.0.0 ('Trust / Lust') 64bit 2017-06-20 12:30:03 / mkvmerge v6.0.0 ('Coming Up For Air') built on Jan 20 2013 09:52:00 2017-06-20 13:12:19
FromStats_BitRate : 640000
FromStats_Duration : 01:21:04.928000000
FromStats_FrameCount : 152029
FromStats_StreamSize : 389194240
Audio #3
ID : 4
Format : AC-3
Format/Info : Audio Coding 3
Mode extension : CM (complete main)
Format settings, Endianness : Big
Codec ID : A_AC3
Duration : 1 h 21 min
Bit rate mode : Constant
Bit rate : 640 kb/s
Channel(s) : 6 channels
Channel positions : Front: L C R, Side: L R, LFE
Sampling rate : 48.0 kHz
Frame rate : 31.250 FPS (1536 spf)
Bit depth : 16 bits
Compression mode : Lossy
Stream size : 371 MiB (2%)
Title : Русская
Language : Russian
Default : No
Forced : No

Скриншоты:



   Похожие торренты   Торрент   Размер 
В этой теме нет новых непрочитанных сообщений. История игрушек 2 / Toy Story 2 (1999) BDRemux 1080p от alur2 | D

8 | 5

19.12 ГБ

В этой теме нет новых непрочитанных сообщений. История игрушек [Трилогия] / Toy Story [Trilogy] (1995; 1999; 2010) BDRip 1080p от Ash61 | 3D-Video | halfOU

4 | 0

23.53 ГБ

В этой теме нет новых непрочитанных сообщений. История игрушек / Toy Story (1995) HDRip от Scarabey | D

183 | 15

744.02 МБ

В этой теме нет новых непрочитанных сообщений. История игрушек / Toy Story (1995) BDRip-AVC | iPhone

49 | 7

1.14 ГБ

В этой теме нет новых непрочитанных сообщений. История игрушек / Toy Story (1995) HDRip от Scarabey | D

964 | 34

1.36 ГБ

В этой теме нет новых непрочитанных сообщений. История игрушек / Toy Story (1995) BDRip от HQCLUB

42 | 2

1.45 ГБ

В этой теме нет новых непрочитанных сообщений. История игрушек / Toy Story (1995) BDRip 720p от HQ-ViDEO | D

328 | 18

4.37 ГБ




Вы не можете начинать темы
Вы не можете отвечать на сообщения
Вы не можете редактировать свои сообщения
Вы не можете удалять свои сообщения
Вы не можете добавлять вложения

Перейти:  
 Вход
ppkBB3cker v.2 © 2008-2014 @ PPK
[ Time : 0.031s | 16 Queries | GZIP : Off ]

cron