img image001 image001 image001 image001 image001 image001 image001 image001 image001 image001 image001 image001 image001 image001 image001 image001

Planets Sun Sun Sun
Статистика раздачи
Автор: Nickolas3434 | Размер: 12.44 ГБ | Добавлен: 23 апр 2017
Раздают: 33    Качают: 3
Скачать торрент
Скачать торрент
Описание торрента

СообщениеДобавлено: 23 апр 2017 

Юные Титаны: Контракт Иуды / Teen Titans: The Judas Contract
Страна: США
Производство: Warner Bros. Animation, DC Entertainment, DC Comics
Год выпуска: 2017
Жанр: мультфильм, фантастика, фэнтези, боевик, приключения
Продолжительность: 01:24:11
Режиссер: Сэм Лью
Авторы сценария: Эрни Альтбэкер, Джон Брум, Арнольд Дрэйк
В ролях: Кристина Риччи, Кевин Смит, Таисса Фармига, Мигель Феррер, Мег Фостер, Джейк Т. Остин, Грегг Генри, Кари Уолгрен, Шон Маэр
Описание: История о столкновениях юных титанов со злейшим врагом Дэфстроуком, который славится своей беспощадностью и коварным нравом. Несмотря на то, что Дэфстроук уже получал на орехи от Дэмиена Уэйна, его это не останавливает. Он хочет взять реванш за прошлую неудачу, и для этого будет использовать все возможные средства. Тем временем, в команде юных титанов пополнение, а именно — Терра, возможности и силы которой придутся героям как раз кстати. Девушка имеет власть над землей и камнем. С этими новыми способностями команда супергероев будет еще более эффективной, готовой вступить в бой в любой момент. Однако на деле героям придется нелегко...

Перевод: Любительский (многоголосый, закадровый) | ZM-SHOW
Субтитры: английские (SDH)

Качество: BDRemux 1080p
Формат: МКV
Видео кодек: AVC
Аудио кодек: DTS
Видео: 1920x1080 (16:9), 23.976 fps, MPEG-4 AVC ~16.8 Мbps avg
Аудио №1: 48.0 kHz, Digital Theater Systems Master Audio, 3/2 (L,C,R,l,r) + LFE ch, ~2048 kbps / 16-bit | RUS
Аудио №2: 48.0 kHz, Digital Theater Systems Master Audio, 3/2 (L,C,R,l,r) + LFE ch, ~2268 kbps / 16-bit | ENG
Формат субтитров: UTF-8 Plain Text
Дата премьеры (мир): 31 марта 2017

Релиз от: -Azureus-
Уникальный идентификатор : 197036490529966574757413783063696099253 (0x943BD9047F24967EA5D1CE07A121C7B5)
Полное имя : Teen Titans. The Judas Contract.2017.BDRemux 1080p.mkv
Формат : Matroska
Версия формата : Version 4 / Version 2
Размер файла : 12,4 Гбайт
Продолжительность : 1 ч. 24 м.
Режим общего битрейта : Переменный
Общий поток : 21,1 Мбит/сек
Название фильма : Teen Titans. The Judas Contract.2017.BDRemux 1080p -Azureus-
Дата кодирования : UTC 2017-04-19 13:16:02
Программа кодирования : mkvmerge v9.4.0 ('Knurl') 64bit
Библиотека кодирования : libebml v1.3.4 + libmatroska v1.4.5
Видео
Идентификатор : 1
Формат : AVC
Формат/Информация : Advanced Video Codec
Профиль формата : High@L4.1
Параметр CABAC формата : Да
Параметр ReFrames формата : 4 кадра
Идентификатор кодека : V_MPEG4/ISO/AVC
Продолжительность : 1 ч. 24 м.
Вид битрейта : Переменный
Битрейт : 16,8 Мбит/сек
Максимальный битрейт : 30,0 Мбит/сек
Ширина : 1920 пикселей
Высота : 1080 пикселей
Соотношение сторон : 16:9
Режим частоты кадров : Постоянный
Частота кадров : 23,976 (24000/1001) кадра/сек
Цветовое пространство : YUV
Субдискретизация насыщенности : 4:2:0
Битовая глубина : 8 бит
Тип развёртки : Прогрессивная
Бит/(Пиксели*Кадры) : 0.338
Размер потока : 9,89 Гбайт (80%)
Язык : English
Default : Да
Forced : Нет
Аудио #1
Идентификатор : 2
Формат : DTS
Формат/Информация : Digital Theater Systems
Профиль формата : MA / Core
Режим : 16
Параметр Endianness формата : Big
Идентификатор кодека : A_DTS
Продолжительность : 1 ч. 24 м.
Вид битрейта : Переменный / Постоянный
Битрейт : 2048 Кбит/сек / 1509 Кбит/сек
Каналы : 6 каналов
Расположение каналов : Front: L C R, Side: L R, LFE
Частота : 48,0 КГц
Частота кадров : 93,750 кадра/сек (512 spf)
Битовая глубина : 16 бит
Метод сжатия : Без потерь / Lossy
Размер потока : 1,21 Гбайт (10%)
Заголовок : MVO - ZM-SHOW
Язык : Russian
Default : Да
Forced : Нет
Аудио #2
Идентификатор : 3
Формат : DTS
Формат/Информация : Digital Theater Systems
Профиль формата : MA / Core
Режим : 16
Параметр Endianness формата : Big
Идентификатор кодека : A_DTS
Продолжительность : 1 ч. 24 м.
Вид битрейта : Переменный / Постоянный
Битрейт : 2268 Кбит/сек / 1509 Кбит/сек
Каналы : 6 каналов
Расположение каналов : Front: L C R, Side: L R, LFE
Частота : 48,0 КГц
Частота кадров : 93,750 кадра/сек (512 spf)
Битовая глубина : 24 бит
Метод сжатия : Без потерь / Lossy
Размер потока : 1,33 Гбайт (11%)
Заголовок : ENG
Язык : English
Default : Нет
Forced : Нет
Текст
Идентификатор : 4
Формат : UTF-8
Идентификатор кодека : S_TEXT/UTF8
Идентификатор кодека/Информация : UTF-8 Plain Text
Продолжительность : 1 ч. 23 м.
Битрейт : 52 бит/сек
ElementCount : 973
Размер потока : 32,1 Кбайт (0%)
Заголовок : Eng Sub - SDH
Язык : English
Default : Нет
Forced : Нет
Меню
00:00:00.000 : en:Chapter 1
00:06:47.532 : en:Chapter 2
00:18:57.094 : en:Chapter 3
00:30:53.017 : en:Chapter 4
00:39:19.482 : en:Chapter 5
00:48:39.583 : en:Chapter 6
00:59:17.720 : en:Chapter 7
01:06:59.390 : en:Chapter 8
01:15:15.427 : en:Chapter 9
01:20:53.265 : en:Chapter 10



   Похожие торренты   Торрент   Размер 
В этой теме нет новых непрочитанных сообщений. Юные Титаны: Контракт Иуды / Teen Titans: The Judas Contract (2017) WEBRip 720 | ZM-SHOW

254 | 5

1.81 ГБ

В этой теме нет новых непрочитанных сообщений. Юные Титаны, вперед! / Teen Titans Go! [S01] (2013) WEB-DL 1080p от CasStudio | D

11 | 3

28.64 ГБ

В этой теме нет новых непрочитанных сообщений. Юные Титаны, вперед! / Teen Titans Go! [S01] (2013) WEB-DL 720p | D

45 | 15

15.81 ГБ

В этой теме нет новых непрочитанных сообщений. Юные Титаны, вперед! / Teen Titans Go! [S01] (2013) WEB-DLRip | D

493 | 46

5.92 ГБ

В этой теме нет новых непрочитанных сообщений. Юные Титаны, вперед! / Teen Titans Go! [05x01-04 из 28] (2018) WEBRip | ColdFilm

0 | 0

420.95 МБ

В этой теме нет новых непрочитанных сообщений. Юные Титаны, вперед! / Teen Titans Go! [05x01-04 из 28] (2018) WEBRip 720p | ColdFilm

0 | 0

1014.58 МБ

В этой теме нет новых непрочитанных сообщений. Юные титаны, вперед! / Teen Titans Go! To the Movies (2018) BDRip-AVC от OlLanDGroup | HDRezka Studio

61 | 8

1.63 ГБ




Вы не можете начинать темы
Вы не можете отвечать на сообщения
Вы не можете редактировать свои сообщения
Вы не можете удалять свои сообщения
Вы не можете добавлять вложения

Перейти:  
 Вход
ppkBB3cker v.2 © 2008-2014 @ PPK
[ Time : 0.026s | 16 Queries | GZIP : Off ]

cron