img image001 image001 image001 image001 image001 image001 image001 image001 image001 image001 image001 image001 image001 image001 image001 image001

Planets Sun Sun Sun
Статистика раздачи
Автор: Снежана | Размер: 5.86 ГБ | Добавлен: 09 окт 2018
Раздают: 23    Качают: 0
Скачать торрент
Скачать торрент
Описание торрента

СообщениеДобавлено: 09 окт 2018 

Год выпуска: 2018
Страна: США
Жанр: Документальный, биография
Продолжительность: 01:56:33
Перевод: Профессиональный (Двухголосый закадровый) Amedia
Режиссёр: Марина Зинович
В ролях: Робин Уильямс, Билли Кристал, Пэм Доубер, Вупи Голдберг, Бобкэт Голдтуэйт, Эрик Айдл, Дэвид Леттерман, Стив Мартин, Дэвид Стейнберг, Валери Веларди
Описание: Трогательный и глубокий документальный портрет одного из самых обожаемых комиков в мире. Используя богатый архив, который до этого никто никогда не видел, авторы фильма рассказывают о необыкновенной жизни и карьере Робина Уильямса. Зритель увидит, какой путь прошел комик: выступления в клубах, успех сериала «Морк и Минди», проблемы с алкоголем и наркотиками, смерть близкого друга, общемировая известность, премия «Оскар» и тяжелая депрессия. Лишь близкие знали, какая боль скрывалась за той маской, которую Уильямс надевал во время выступлений или на съемочной площадке. Продюсером «Загляни в мою душу» стал лауреат премии «Оскар» Алекс Гибни.

Качество: WEB-DL 1080p (Amazon)
Контейнер: MKV
Видео: MPEG-4 AVC, ~ 6000 kbps avg, 1920x1080, 23.976 fps
Аудио 1: Russian: 48 kHz, AC3, 5.1 ch, ~384 kbps avg |Двухголосый закадровый, Amedia|
Аудио 2: English: 48 kHz, EAC3, 5.1 ch, ~640 kbps avg
Субтитры: Russian (Full), English (Full, SDH)
Реклама: Отсутствует
Релиз TeamHD - BenderBEST
В отличие от соседней раздачи 1080p, отсутствует рассинхрон!
Общее
Уникальный идентификатор : 170263928963661282123038750446411129858 (0x8017A3D20F6687A4ACAEFF5777852402)
Полное имя : S:Robin.Williams.Come.Inside.My.Mind.2018.1080p.AMZN.WEB-DL.Rus.Eng_THD.mkv
Формат : Matroska
Версия формата : Version 4 / Version 2
Размер файла : 5,86 Гбайт
Продолжительность : 1 ч. 56 м.
Общий поток : 7196 Кбит/сек
Название фильма : Robin Williams: Come Inside My Mind - ReJliz TeamHD by BenderBEST
Дата кодирования : UTC 2018-09-02 18:23:34
Программа кодирования : mkvmerge v6.9.1 ('Blue Panther') 32bit built on Apr 18 2014 18:15:44
Библиотека кодирования : libebml v1.3.0 + libmatroska v1.4.1
Видео
Идентификатор : 1
Формат : AVC
Формат/Информация : Advanced Video Codec
Профиль формата : High@L4
Параметр CABAC формата : Да
Параметр ReFrames формата : 4 кадра
Идентификатор кодека : V_MPEG4/ISO/AVC
Продолжительность : 1 ч. 56 м.
Битрейт : 6029 Кбит/сек
Ширина : 1920 пикселей
Высота : 1080 пикселей
Соотношение сторон : 16:9
Режим частоты кадров : Постоянный
Частота кадров : 23,976 (24000/1001) кадра/сек
Цветовое пространство : YUV
Субдискретизация насыщенности : 4:2:0
Битовая глубина : 8 бит
Тип развёртки : Прогрессивная
Бит/(Пиксели*Кадры) : 0.121
Размер потока : 4,91 Гбайт (84%)
Язык : English
Default : Да
Forced : Да
Цветовой диапазон : Limited
Основные цвета : BT.709
Характеристики трансфера : BT.709
Коэффициенты матрицы : BT.709
Аудио #1
Идентификатор : 2
Формат : AC-3
Формат/Информация : Audio Coding 3
Расширение режима : CM (complete main)
Параметр Endianness формата : Big
Идентификатор кодека : A_AC3
Продолжительность : 1 ч. 56 м.
Вид битрейта : Постоянный
Битрейт : 384 Кбит/сек
Каналы : 6 каналов
Расположение каналов : Front: L C R, Side: L R, LFE
Частота : 48,0 КГц
Частота кадров : 31,250 кадров/сек (1536 spf)
Метод сжатия : С потерями
Размер потока : 320 Мбайт (5%)
Заголовок : AC3 5.1 @ 384 kbps - MVO, Amedia
Язык : Russian
Default : Да
Forced : Да
Аудио #2
Идентификатор : 3
Формат : E-AC-3
Формат/Информация : Audio Coding 3
Параметр Endianness формата : Big
Идентификатор кодека : A_EAC3
Продолжительность : 1 ч. 56 м.
Вид битрейта : Постоянный
Битрейт : 640 Кбит/сек
Каналы : 6 каналов
Расположение каналов : Front: L C R, Side: L R, LFE
Частота : 48,0 КГц
Частота кадров : 187,500 кадров/сек (256 spf)
Метод сжатия : С потерями
Задержка видео : 1 мс.
Размер потока : 534 Мбайт (9%)
Заголовок : EAC3 5.1 @ 640 kbps
Язык : English
Default : Нет
Forced : Нет
Текст #1
Идентификатор : 4
Формат : UTF-8
Идентификатор кодека : S_TEXT/UTF8
Идентификатор кодека/Информация : UTF-8 Plain Text
Заголовок : Full
Язык : Russian
Default : Нет
Forced : Нет
Текст #2
Идентификатор : 5
Формат : UTF-8
Идентификатор кодека : S_TEXT/UTF8
Идентификатор кодека/Информация : UTF-8 Plain Text
Заголовок : Full
Язык : English
Default : Нет
Forced : Нет
Текст #3
Идентификатор : 6
Формат : UTF-8
Идентификатор кодека : S_TEXT/UTF8
Идентификатор кодека/Информация : UTF-8 Plain Text
Заголовок : SDH
Язык : English
Default : Нет
Forced : Нет





   Похожие торренты   Торрент   Размер 
В этой теме нет новых непрочитанных сообщений. Робин Уильямс: Загляни в мою душу / Robin Williams: Come Inside My Mind (2018) WEB-DL 720p | Amedia

135 | 3

2.59 ГБ

В этой теме нет новых непрочитанных сообщений. Робин Уильямс: Загляни в мою душу / Robin Williams : Come Inside My Mind (2018) WEB-DL 1080p | P2

0 | 0

5.86 ГБ

В этой теме нет новых непрочитанных сообщений. Робин Уильямс: Загляни в мою душу / Robin Williams: Come Inside My Mind (2018) DVBRip от R.G.Resident | P2

74 | 0

1.46 ГБ

В этой теме нет новых непрочитанных сообщений. Робин Гуд: Восстание / Robin Hood The Rebellion (Николас Винтер) [2018, боевик, приключения, история, WEBDLRip] MVO

212 | 9

1.37 ГБ

В этой теме нет новых непрочитанных сообщений. Робин и 7 гангстеров / Robin and the 7 Hoods (1964) BDRemux 1080p | P, A

8 | 21

19.79 ГБ

В этой теме нет новых непрочитанных сообщений. Робин Гуд / Robin Hood (2010) BDRemux 1080p | D, A | Directors Cut

9 | 6

38.64 ГБ

В этой теме нет новых непрочитанных сообщений. Робин Гуд / Robin Hood (2010) BDRip 1080p | D, Р | Театральная версия / Theatrical Cut

20 | 37

12.27 ГБ




Вы не можете начинать темы
Вы не можете отвечать на сообщения
Вы не можете редактировать свои сообщения
Вы не можете удалять свои сообщения
Вы не можете добавлять вложения

Перейти:  
 Вход
ppkBB3cker v.2 © 2008-2014 @ PPK
[ Time : 0.022s | 16 Queries | GZIP : Off ]

cron