img image001 image001 image001 image001 image001 image001 image001 image001 image001 image001 image001 image001 image001 image001 image001 image001

Planets Sun Sun Sun
Статистика раздачи
Автор: Nickolas3434 | Размер: 487.23 МБ | Добавлен: 04 окт 2015
Раздают: 11    Качают: 21
Скачать торрент
Скачать торрент
Описание торрента

СообщениеДобавлено: 04 окт 2015 


Информация о фильме
Название: Поедем поедим
Год выхода: 2015
Жанр: Тв-Шоу
О фильме:
Джон Уоррен закрывает дачный сезон в Подмосковье. Он посадит розы с Любой Успенской, сделает запасы на зиму с Анной Хилькевич, прогуляется по зоопарку Гии Гагуа и приготовит плов на мангале с Дмитрием Миллером. А еще – объявит новый конкурс!
Продолжительность: 00:25:00
Перевод: Не требуется
Файл
Кодек: XviD
Качество: SATRip
Видео: 720x448 (1.61:1), 25 fps, XviD build 50 ~1800 kbps avg, 0.22 bit/pixel
Звук: 48 kHz, MPEG Layer 3, 2 ch, ~128.00 kbps avg

Общее
Полное имя : D:Poedem.poedim.(2015.10.03).SATRip.avi
Формат : AVI
Формат/Информация : Audio Video Interleave
Размер файла : 461 Мбайт
Продолжительность : 33 м.
Общий поток : 1938 Кбит/сек
Программа кодирования : VirtualDubMod 1.5.10.3 | www.virtualdub-fr.org || (build 2550/release)
Библиотека кодирования : VirtualDubMod build 2550/release
Видео
Идентификатор : 0
Формат : MPEG-4 Visual
Профиль формата : Advanced Simple@L5
Параметр BVOP формата : 2
Параметр QPel формата : Нет
Параметр GMC формата : Без точки перехода
Параметр матрицы формата : Default (H.263)
Идентификатор кодека : XVID
Идентификатор кодека/Подсказка : XviD
Продолжительность : 33 м.
Битрейт : 1800 Кбит/сек
Ширина : 720 пикселей
Высота : 448 пикселей
Соотношение сторон : 16:10
Частота кадров : 25,000 кадров/сек
Цветовое пространство : YUV
Субдискретизация насыщенности : 4:2:0
Битовая глубина : 8 бит
Тип развёртки : Прогрессивная
Метод сжатия : С потерями
Бит/(Пиксели*Кадры) : 0.223
Размер потока : 428 Мбайт (93%)
Библиотека кодирования : XviD 1.2.1 (UTC 2008-12-04)
Аудио
Идентификатор : 1
Формат : MPEG Audio
Версия формата : Version 1
Профиль формата : Layer 3
Идентификатор кодека : 55
Идентификатор кодека/Подсказка : MP3
Продолжительность : 33 м.
Вид битрейта : Постоянный
Битрейт : 128 Кбит/сек
Каналы : 2 канала
Частота : 48,0 КГц
Метод сжатия : С потерями
Размер потока : 30,5 Мбайт (7%)
Выравнивание : Соединение по промежуткам
Продолжительность промежутка : 40 мс. (1,00 видеокадр)
Время предзагрузки промежутка : 504 мс.
Библиотека кодирования : LAME3.99r
Настройки программы : -m s -V 4 -q 2 -lowpass 17 -b 128

Релиз от:



   Похожие торренты   Торрент   Размер 
В этой теме нет новых непрочитанных сообщений. Поедем, поедим! [10.10] (2015) SATRip

22 | 3

477.06 МБ

В этой теме нет новых непрочитанных сообщений. Поедем, поедим! [26.09] (2015) SATRip

41 | 3

461.07 МБ

В этой теме нет новых непрочитанных сообщений. Поедем поедим [12.09] (2015) SATRip

34 | 5

475.12 МБ

В этой теме нет новых непрочитанных сообщений. Поедем, поедим! [19.09] (2015) SATRip

22 | 12

485.32 МБ

В этой теме нет новых непрочитанных сообщений. Теннис. WTA Brisbane-2015. Брисбен-2015. Финал. Роджер Федерер - Милош Раонич [11.01] (2015) SATRip 720p | 50 fps

19 | 5

3.3 ГБ

В этой теме нет новых непрочитанных сообщений. Сан-Ремо 2015 / Sanremo 2015 [65º Festival della Canzone Italiana] (2015) SATRip-AVC

173 | 22

16.43 ГБ

В этой теме нет новых непрочитанных сообщений. Хоккей. Чемпионат мира-2015. Группа В. 4 тур. США - Беларусь (2015) SATRip от GeneralFilm

397 | 115

1.53 ГБ




Вы не можете начинать темы
Вы не можете отвечать на сообщения
Вы не можете редактировать свои сообщения
Вы не можете удалять свои сообщения
Вы не можете добавлять вложения

Перейти:  
 Вход
ppkBB3cker v.2 © 2008-2014 @ PPK
[ Time : 0.035s | 15 Queries | GZIP : Off ]

cron