img image001 image001 image001 image001 image001 image001 image001 image001 image001 image001 image001 image001 image001 image001 image001 image001

Planets Sun Sun Sun
Статистика раздачи
Автор: Снежана | Размер: 7.97 ГБ | Добавлен: 13 сен 2018
Раздают: 1    Качают: 0
Скачать торрент
Скачать торрент
Описание торрента

СообщениеДобавлено: 13 сен 2018 

Врата Штейна 0 / Steins;Gate 0 / Steins,Gate Zero


Перевод: Любительский (двухголосый, закадровый) [Anything Group]
Субтитры: Русские, ASS, KBOPYM, Ristretto [SovetRomantica]
Хардсаб: отсутствует
Формат: HDTVRip, MP4, H.264, AAC
Страна: Япония
Режиссер: Кавамура Кэнъити
Автор оригинала: Сикура Тиёмару
Жанр: триллер, фантастика, драма
Продолжительность: TV 23 эп. по ~25 мин.
Год выпуска: 2018
Озвучка: Sad_Kit & Milirina (Sample)
Работа со звуком: Sad_Kit

Студия:

Описание:
"Действие происходит в начале декабря 2010 года и разворачивается в мировой линии β.
После всего пережитого, Окабэ Ринтаро охватило отчаяние, и он из-за всех сил пытается оправиться от своей последней попытки изменить будущее. Стремясь забыть всё то, что он пережил во время прыжков во времени, он решает изменить своему второму «я», в лице безумного ученого и старается жить, как обычный студент. так же он изо всех сил старается не замечать ""гостью из будущего"", которая поселилась в лаборатории и пытается уговорить его помочь. И всё роде бы налаживается, но вдруг, его персональное прошлое, весь ад, о котором никто из живущих в этой мировой линии даже и не догадывается, вновь напоминает о себе. Посетив конференцию посвященную разработкам в области Искусственного Интеллекта, на которую он попал практически случайно, он слушает доклад о разработках основанных на работе ныне покойной Макисе Курису, которую так и не смог спасти Окабе. Прошлое, от которого так старательно пытался скрыться Окабе, вновь настигает его.



Видео: 1280x720р (16:9), 23,976fps, AVC (x264) , ~ 1 337 kbps avg, 0.060 Bits/Pixel
Аудио#1: RUS -48.0 kHz, AC3, (Front: L R), 2 ch ~ 192 Kbps avg
Аудио#2: JAP -48.0 kHz, AAC, (Front: L R), 2 ch ~ 192 Kbps avg


General
Unique ID : 82796715204755270074627784367547810886 (0x3E4A113B4AC00B64D371820101E30446)
Complete name : torrents\Steins;Gate 0 [Anything Group]\[Anything Group] Steins;Gate 0 - 01.mkv
Format : Matroska
Format version : Version 4 / Version 2
File size : 296 MiB
Duration : 23 min 59 s
Overall bit rate : 1 723 kb/s
Encoded date : UTC 2018-06-15 06:49:05
Writing application : mkvmerge v19.0.0 ('Brave Captain') 64-bit
Writing library : libebml v1.3.5 + libmatroska v1.4.8

Video
ID : 1
Format : AVC
Format/Info : Advanced Video Codec
Format profile :
Format settings : CABAC / 4 Ref Frames
Format settings, CABAC : Yes
Format settings, ReFrames : 4 frames
Codec ID : V_MPEG4/ISO/AVC
Duration : 23 min 59 s
Bit rate : 1 337 kb/s
Width : 1 280 pixels
Height : 720 pixels
Display aspect ratio : 16:9
Frame rate mode : Constant
Frame rate : 23.976 (24000/1001) FPS
Color space : YUV
Chroma subsampling : 4:2:0
Bit depth : 8 bits
Scan type : Progressive
Bits/(Pixel*Frame) : 0.060
Stream size : 229 MiB (78%)
Writing library : x264 core 129 r2245+729M 1a52e03
Encoding settings : cabac=1 / ref=4 / deblock=1:1:-1 / analyse=0x3:0x113 / me=umh / subme=9 / psy=1 / fade_compensate=0.00 / psy_rd=1.00:0.00 / mixed_ref=1 / me_range=24 / chroma_me=1 / trellis=2 / 8x8dct=1 / cqm=0 / deadzone=21,11 / fast_pskip=1 / chroma_qp_offset=-2 / threads=8 / lookahead_threads=1 / sliced_threads=0 / nr=0 / decimate=1 / interlaced=0 / bluray_compat=0 / constrained_intra=0 / fgo=0 / bframes=9 / b_pyramid=2 / b_adapt=2 / b_bias=0 / direct=1 / weightb=1 / open_gop=0 / weightp=2 / keyint=240 / keyint_min=24 / scenecut=40 / intra_refresh=0 / rc=crf / mbtree=0 / crf=18.5 / qcomp=0.72 / qpmin=0 / qpmax=69 / qpstep=4 / ip_ratio=1.40 / pb_ratio=1.30 / aq=1:0.85
Default : Yes
Forced : No
Color range : Limited
Color primaries : BT.709
Transfer characteristics : BT.709
Matrix coefficients : BT.709

Audio #1
ID : 2
Format : AC-3
Format/Info : Audio Coding 3
Codec ID : A_AC3
Duration : 23 min 59 s
Bit rate mode : Constant
Bit rate : 192 kb/s
Channel(s) : 2 channels
Channel positions : Front: L R
Sampling rate : 48.0 kHz
Frame rate : 31.250 FPS (1536 SPF)
Bit depth : 16 bits
Compression mode : Lossy
Stream size : 33.0 MiB (11%)
Title : [Anything Group]
Language : Russian
Service kind : Complete Main
Default : Yes
Forced : Yes

Audio #2
ID : 3
Format : AAC
Format/Info : Advanced Audio Codec
Format profile : LC
Codec ID : A_AAC-2
Duration : 23 min 59 s
Bit rate : 192 kb/s
Channel(s) : 2 channels
Channel positions : Front: L R
Sampling rate : 48.0 kHz
Frame rate : 46.875 FPS (1024 SPF)
Compression mode : Lossy
Stream size : 32.9 MiB (11%)
Title : Original
Language : Japanese
Default : No
Forced : No

Text #1
ID : 4
Format : ASS
Codec ID : S_TEXT/ASS
Codec ID/Info : Advanced Sub Station Alpha
Duration : 12 min 59 s
Bit rate : 29 b/s
Count of elements : 25
Compression mode : Lossless
Stream size : 2.83 KiB (0%)
Title : [SovetRomantica] Надписи
Language : Russian
Default : Yes
Forced : No

Text #2
ID : 5
Format : ASS
Codec ID : S_TEXT/ASS
Codec ID/Info : Advanced Sub Station Alpha
Duration : 22 min 20 s
Bit rate : 164 b/s
Count of elements : 353
Compression mode : Lossless
Stream size : 26.9 KiB (0%)
Title : [SovetRomantica] Полные
Language : Russian
Default : No
Forced : No
[/pre]


01. Недостающее звено аннигилятора: Абсолютный ноль
02. Эпиграф замкнутой кривой: закрытый эпиграф
03. Протокол дуализма Евангелия: протокол дня X
04. Одиночество скорбного потока: Отбившаяся овца
05. Одиночество астигматизма: Заблудшая овца
06. Затмение орбитального порядка: Орбитальное затмение
07. Затмение вибронного перехода: Вибронный переход
08. Дуэт Антиномии: Антиномичный Дуэт
09. Вечный возврат Пандоры: Ящик Пандоры
10. Пандора доказанного существования: Запретная кабина
11. Пандора забытого существования: Запечатанная гробница
12. Взаимная рекурсия Матушки Гусыни: Рекурсивная Матушка Гусыня
13. Матушка Гусыня дифференциального речитатива: Дифракция Матушки Гусыни
14. Предчувствие или Осознание: Сознание Предела Упругости
15. Распознавание ассимптотической линии: Распознание ассимптоты
16. Альтаир точки на бесконечности: Вега и Альтаир
17. Альтаир гиперболической плоскости: Псевдосфера Бельтрами
18. Альтаир Трансляционной Симметрии: Трансляционная Симметрия
19. Альтаир циклической координаты: Машина прыжков во времени
20. Возрождение непоколебимого обещания: Обещанное возрождение








Внимание! Раздача ведётся путём добавления новых серий; при каждом добавлении создётся новый торрент. Чтобы начать докачку новой серии, пользователям необходимо сделать следующее:
(1) остановить скачивание,
(2) удалить старый торрент у себя из клиента (старые серии удалять не надо),
(3) скачать новый торрент и запустить его у себя в клиенте вместо старого, при этом указать клиенту путь в старую папку куда и должно происходить скачивание новых серий.

Ваш клиент при этом должен произвести хеширование (проверку) старой папки (если не производит сам - помогите ему сделать это), и будет докачивать только те серии которых у вас ещё нет. Старые серии при этом не удаляются, а продолжают раздаваться!

Eсли вы уже удалили старые серии, то предотвратить повторную закачку старых серий можно, отжав галочку в соответсвующих местах при запуске нового торрента. По возможности, желательно не удалять старые серии как можно дольше чтобы релизёр не столько продолжал раздавать старые серии, а смог сконцентрироваться на новых.




   Похожие торренты   Торрент   Размер 
В этой теме нет новых непрочитанных сообщений. Врата Штейна 0 / Steins;Gate 0 [Anything Group] (Кавамура Кэнъити) [2018, триллер, фантастика, драма, HDTVRip] [720p]

4 | 0

4.08 ГБ

В этой теме нет новых непрочитанных сообщений. Врата Штейна 0 / Steins;Gate 0 [Anything Group] (Кавамура Кэнъити) [2018, триллер, фантастика, драма, HDTVRip] [720p]

0 | 0

7.51 ГБ

В этой теме нет новых непрочитанных сообщений. Врата Штейна 0 / Steins;Gate 0 [Anything Group] (Кавамура Кэнъити) [2018, триллер, фантастика, драма, HDTVRip] [720p]

2 | 0

4.57 ГБ

В этой теме нет новых непрочитанных сообщений. Врата Штейна 0 / Steins;Gate 0 [Anything Group] (Кавамура Кэнъити) [2018, триллер, фантастика, драма, HDTVRip] [720p]

8 | 0

5.33 ГБ

В этой теме нет новых непрочитанных сообщений. Врата Штейна 0 / Steins;Gate 0 (Кавамура Кэнъити) [23 из 23] [Anything Group] [RAW] [2018, триллер, фантастика, драма, HDTVRip] [720p]

1 | 0

9.48 ГБ

В этой теме нет новых непрочитанных сообщений. Врата Штейна: Ноль / Steins;Gate 0 [01-09 из 23] (2018) HDTVRip 720p | Persona99

4 | 1

3.62 ГБ

В этой теме нет новых непрочитанных сообщений. Врата Штейна: Ноль / Steins;Gate 0 [01-08 из 23] (2018) HDTVRip 720p | Persona99

3 | 1

3.16 ГБ




Вы не можете начинать темы
Вы не можете отвечать на сообщения
Вы не можете редактировать свои сообщения
Вы не можете удалять свои сообщения
Вы не можете добавлять вложения

Перейти:  
 Вход
ppkBB3cker v.2 © 2008-2014 @ PPK
[ Time : 0.022s | 15 Queries | GZIP : Off ]

cron