img image001 image001 image001 image001 image001 image001 image001 image001 image001 image001 image001 image001 image001 image001 image001 image001

Planets Sun Sun Sun
Статистика раздачи
Автор: Nickolas3434 | Размер: 19.23 ГБ | Добавлен: 13 июн 2017
Раздают: 7    Качают: 6
Скачать торрент
Скачать торрент
Описание торрента

СообщениеДобавлено: 13 июн 2017 

Название: Неизвестная экспедиция
Оригинальное название: Expedition unknown
Год выхода: 2015-2017
Жанр: Документальный цикл, приключения
Режиссер: Ник Трамонтано
Описание: Археолог и исследователь паранормальных явлений Джош Гейтс охотится по всему миру за спрятанными сокровищами и потерянными артефактами, ищет свидетельства существования реального короля Артура и едва избегает смерти при спуске в подземные пещеры. Джош восстанавливает историю легендарного Робин Гуда, исследуя туннели, по которым тот сбежал из заточения, а затем едет в Восточную Европу, чтобы изучить легенды о вампирах. Он также обыскивает океанское дно у Каймановых островов и берегов Северной Каролины в поисках сокровищ легендарного пирата Черной Бороды. Не пропустите исследование величайших легенд в истории!
Исходник HDTV 1080i
Рип: Вайделот
Страна: США, Ping Pong Productions
Продолжительность: 41 х ~ 00:40:00
Перевод: Профессиональный (двухголосый, закадровый)
Субтитры: отсутствуют


Качество: HDTVRip-AVC
Формат: MKV
Видео: H.264, 704x400, 25 fps, ~1500 Kbps
Аудио: AC3, 48 kHz, 2 ch, 128 Kbps (Русский)
Аудио: AC3, 48 kHz, 2 ch, 128 Kbps (Английский)
Сезон 1:
1-01 - Амелия Эрхарт
1-02 - Храм Судьбы
1-03 - Восьмое чудо света
1-04 - Легенда о Джесси Джеймсе
1-05 - Золотой город
1-06 - Солнечный камень викингов
1-07 - Пропавшее золото капитана Моргана
1-08 - Зашифрованное золото
1-09 - Апокалипсис майя
1-10 - Секреты Наска
1-11 - Самурайский меч силы
1-12 - Проклятие золотого колокола
Сезон 2:
2-01 - Поиск короля Артура
2-02 - Могила Чингисхана
2-03 - Золото Черной Бороды
2-04 - Охота на вампиров
2-05 - Настоящий Робин Гуд
2-07 - Поиск сокровищ Фенна
2-11 - Японская Атлантида
2-12 - Животворящий крест Христов
2-14 - Сердце султана
2-15 - Золотые сокровища Африки
2-17 - Затерянный город в пустыне Калахари
2-18 - Золото Ямаситы
2-19 - Колумб: герой или лжец?
2-22 - Тайны Шангри-Ла
2-25 - Затерянный мексиканский город
2-26 - Мумия правителя инков
Сезон 3:
3-01 - Золото Пламмера
3-02 - Потерянная могила Аттилы
3-03 - Исчезнушая империя
3-04 - Потерянная колония Роанок
3-09 - Путешествие в Ледниковый период
3-11 - Золото Лассетера
3-16 - Сокровище капитана Кидда
Сезон Specials:
Part 1 - Поиски снежного человека. Возвращение снежного человека
Part 2 - Поиски снежного человека. Чудовище и гора
Part 3 - Поиски снежного человека. Словно снег на голову
Part 4 - Поиски снежного человека. Разоблачение мифа
Необычайные похождения. Спецвыпуск
Part 13 - Международная телевикторина: греческая Одиссея. Спецвыпуск
Формат : Matroska
Версия формата : Version 4 / Version 2
Размер файла : 496 Мбайт
Продолжительность : 41 м. 57 с.
Общий поток : 1653 Кбит/сек
Программа кодирования : XviD4PSP 7.0.389 DAILY
Библиотека кодирования : Lavf57.71.100 / Lavf57.71.100
ErrorDetectionType : Per level 1
ENCODING_INFO : MPEGTS > MKV / H264 > X264 CBR 1500kbps HQ / MP2 > AC3 CBR 128kbps / MP2 > AC3 CBR 128kbps
Видео
Идентификатор : 1
Формат : AVC
Формат/Информация : Advanced Video Codec
Профиль формата : High@L3
Параметр CABAC формата : Да
Параметр ReFrames формата : 4 кадра
Идентификатор кодека : V_MPEG4/ISO/AVC
Продолжительность : 41 м. 57 с.
Битрейт : 1364 Кбит/сек
Номинальный битрейт : 1500 Кбит/сек
Ширина : 704 пикселя
Высота : 400 пикселей
Соотношение сторон : 16:9
Режим частоты кадров : Постоянный
Частота кадров : 25,000 кадров/сек
Цветовое пространство : YUV
Субдискретизация насыщенности : 4:2:0
Битовая глубина : 8 бит
Тип развёртки : Прогрессивная
Бит/(Пиксели*Кадры) : 0.194
Размер потока : 409 Мбайт (83%)
Библиотека кодирования : x264 core 150 r2833M df79067
Настройки программы : cabac=1 / ref=3 / deblock=1:0:0 / analyse=0x3:0x133 / me=hex / subme=7 / psy=1 / psy_rd=1.00:0.20 / mixed_ref=1 / me_range=16 / chroma_me=1 / trellis=1 / 8x8dct=1 / cqm=0 / deadzone=21,11 / fast_pskip=1 / chroma_qp_offset=-3 / threads=5 / lookahead_threads=1 / sliced_threads=0 / nr=0 / decimate=1 / interlaced=0 / bluray_compat=0 / constrained_intra=0 / bframes=3 / b_pyramid=2 / b_adapt=2 / b_bias=0 / direct=3 / weightb=1 / open_gop=0 / weightp=2 / keyint=250 / keyint_min=25 / scenecut=40 / intra_refresh=0 / rc_lookahead=40 / rc=cbr / mbtree=1 / bitrate=1500 / ratetol=1.0 / qcomp=0.60 / qpmin=0 / qpmax=69 / qpstep=4 / vbv_maxrate=1500 / vbv_bufsize=1071 / nal_hrd=none / filler=0 / ip_ratio=1.40 / aq=1:1.00
Default : Да
Forced : Нет
Цветовой диапазон : Limited
Основные цвета : BT.709
Характеристики трансфера : BT.709
Коэффициенты матрицы : BT.709
DURATION : 00:41:57.200000000
Аудио #1
Идентификатор : 2
Формат : AC-3
Формат/Информация : Audio Coding 3
Расширение режима : CM (complete main)
Параметр Endianness формата : Big
Идентификатор кодека : A_AC3
Продолжительность : 41 м. 57 с.
Вид битрейта : Постоянный
Битрейт : 128 Кбит/сек
Каналы : 2 канала
Расположение каналов : Front: L R
Частота : 48,0 КГц
Частота кадров : 31,250 кадров/сек (1536 spf)
Битовая глубина : 16 бит
Метод сжатия : С потерями
Размер потока : 38,4 Мбайт (8%)
Язык : Russian
Default : Да
Forced : Нет
DURATION : 00:41:57.120000000
Аудио #2
Идентификатор : 3
Формат : AC-3
Формат/Информация : Audio Coding 3
Расширение режима : CM (complete main)
Параметр Endianness формата : Big
Идентификатор кодека : A_AC3
Продолжительность : 41 м. 57 с.
Вид битрейта : Постоянный
Битрейт : 128 Кбит/сек
Каналы : 2 канала
Расположение каналов : Front: L R
Частота : 48,0 КГц
Частота кадров : 31,250 кадров/сек (1536 spf)
Битовая глубина : 16 бит
Метод сжатия : С потерями
Размер потока : 38,4 Мбайт (8%)
Язык : English
Default : Нет
Forced : Нет
DURATION : 00:41:57.184000000


Внимание! Раздача ведётся путём добавления новых выпусков; при каждом добавлении создаётся новый торрент. Чтобы начать докачку нового выпуска, пользователям необходимо сделать следующее:
(1) остановить скачивание,
(2) удалить старый торрент у себя из клиента (старые серии удалять не надо),
(3) скачать новый торрент и запустить его у себя в клиенте вместо старого, при этом указать клиенту путь в старую папку куда и должно происходить скачивание новых выпусков.
Ваш клиент при этом должен произвести хеширование (проверку) старой папки (если не производит сам - помогите ему сделать это). В результате он будет докачивать только те выпуски, которых у Вас ещё нет. Старые выпуски при этом не удаляются, а продолжают раздаваться!
Eсли Вы уже удалили старые выпуски, то предотвратить их повторную закачку можно, сняв галочки в соответствующих местах при запуске нового торрента. По возможности, желательно не удалять старые выпуски как можно дольше, чтобы релизёр не только продолжал раздавать старые выпуски, но и смог сконцентрироваться на новых.



   Похожие торренты   Торрент   Размер 
В этой теме нет новых непрочитанных сообщений. Travel Channel: Неизвестная экспедиция / Expedition unknown [S01-03х01-43] (2015-2017) HDTVRip-AVC | P2

6 | 1

20.22 ГБ

В этой теме нет новых непрочитанных сообщений. Travel Channel. Неизвестная экспедиция / Expedition unknown [S01-03х01-28] (2015-2017) HDTV 1080i | P2

0 | 0

96.38 ГБ

В этой теме нет новых непрочитанных сообщений. Travel Channel. Неизвестная экспедиция / Expedition unknown [S01-03х01-28] (2015-2017) HDTV 1080i | P2

2 | 3

101.63 ГБ

В этой теме нет новых непрочитанных сообщений. Travel Channel. Неизвестная экспедиция / Expedition unknown [S01-03х01-28] (2015-2017) HDTV 1080i | P2

0 | 0

77.54 ГБ

В этой теме нет новых непрочитанных сообщений. Travel Channel. Неизвестная экспедиция / Expedition unknown [S01-03х01-28] (2015-2017) HDTV 1080i | P2

0 | 0

93.55 ГБ

В этой теме нет новых непрочитанных сообщений. Travel Channel. Неизвестная экспедиция / Expedition unknown [S01-03х01-28] (2015-2017) HDTV 1080i | P2

0 | 3

88.28 ГБ

В этой теме нет новых непрочитанных сообщений. Travel Channel. Неизвестная экспедиция / Expedition unknown [S01-03х01-28] (2015-2017) HDTV 1080i | P2

1 | 0

83.03 ГБ




Вы не можете начинать темы
Вы не можете отвечать на сообщения
Вы не можете редактировать свои сообщения
Вы не можете удалять свои сообщения
Вы не можете добавлять вложения

Перейти:  
 Вход
ppkBB3cker v.2 © 2008-2014 @ PPK
[ Time : 0.023s | 16 Queries | GZIP : Off ]

cron