img image001 image001 image001 image001 image001 image001 image001 image001 image001 image001 image001 image001 image001 image001 image001 image001

Planets Sun Sun Sun
Статистика раздачи
Автор: Снежана | Размер: 1.46 ГБ | Добавлен: 24 июл 2013
Раздают: 33    Качают: 7
Скачать торрент
Скачать торрент
Описание торрента

СообщениеДобавлено: 24 июл 2013 

#77
Страна: СССР
Студия: Мосфильм
Жанр: приключения, история
Год выпуска: 1988
Продолжительность: 01:31:15

Перевод: не требуется
Оригинальная аудиодорожка: русский
Cубтитры: нет

Режиссер: Сергей Тарасов

В ролях: Ольга Кабо, Александр Кознов, Александр Лазарев, Александр Яковлев, Александр Пашутин, Юрий Кузнецов, Леонид Кулагин, Борис Хмельницкий, Паул Буткевич, Борис Химичев...

Описание: По мотивам романа В. Скотта «Квентин Дорвард». Франция, XV век. Молодой шотландец, стремящийся достойно приложить свои силы, обласкан королем и принят в гвардию. Вскоре король поручает ему трудную миссию — однако дело оборачивается коварным обманом. Спасая возлюбленную, стрелок гвардии проявляет чудеса мужества и благородства…






Качество: DVDRip (DVD5 R5)
Формат: AVI

Видео: 704x432 (16:10), 25.000 fps, XviD ~ 2180 kbps avg, 0.287 bit/pixel
Аудио: 48 kHz, МР3 1 ch, 96 kbps, русский

Раздача от:
Общее
Полное имя : Priklyucheniya.Kventina.Dorvarda.1988.O.DVDRip_[Youtraker]_by_avproh.avi
Формат : AVI
Формат/Информация : Audio Video Interleave
Размер файла : 1,46 Гбайт
Продолжительность : 1 ч. 31 м.
Общий поток : 2286 Кбит/сек
Программа кодирования : VirtualDubModRus 1.5.10.2 (build 2542/release)
Библиотека кодирования : VirtualDubMod build 2542/release

Видео
Идентификатор : 0
Формат : MPEG-4 Visual
Профиль формата : Advanced Simple@L5
Параметр BVOP формата : 1
Параметр QPel формата : Нет
Параметр GMC формата : Без точки перехода
Параметр матрицы формата : Выборочная
Идентификатор кодека : XVID
Идентификатор кодека/Подсказка : XviD
Продолжительность : 1 ч. 31 м.
Битрейт : 2180 Кбит/сек
Ширина : 704 пикселя
Высота : 432 пикселя
Соотношение сторон : 16:10
Частота кадров : 25,000 кадров/сек
Цветовое пространство : YUV
Субдискретизация насыщенности : 4:2:0
Битовая глубина : 8 бит
Тип развёртки : Прогрессивная
Метод сжатия : С потерями
Бит/(Пиксели*Кадры) : 0.287
Размер потока : 1,39 Гбайт (95%)
Библиотека кодирования : XviD 65

Аудио
Идентификатор : 1
Формат : MPEG Audio
Версия формата : Version 1
Профиль формата : Layer 3
Идентификатор кодека : 55
Идентификатор кодека/Подсказка : MP3
Продолжительность : 1 ч. 31 м.
Вид битрейта : Постоянный
Битрейт : 96,0 Кбит/сек
Каналы : 1 канал
Частота : 48,0 КГц
Метод сжатия : С потерями
Размер потока : 62,7 Мбайт (4%)
Выравнивание : Соединение по промежуткам
Продолжительность промежутка : 40 мс. (1,00 видеокадр)
Время предзагрузки промежутка : 504 мс.





   Похожие торренты   Торрент   Размер 
В этой теме нет новых непрочитанных сообщений. Белка и Стрелка: Лунные приключения (Александр Храмцов, Инна Евланникова, Вадим Сотсков) [2013, мультфильм, комедия, приключения, HDRip]

0 | 2

1.37 ГБ

В этой теме нет новых непрочитанных сообщений. Белка и Стрелка: Лунные приключения (2013) TS

1443 | 122

1.37 ГБ

В этой теме нет новых непрочитанных сообщений. Белка и Стрелка: Лунные приключения (2013) WEB-DLRip

327 | 361

1.37 ГБ

В этой теме нет новых непрочитанных сообщений. Белка и Стрелка: Лунные приключения (2013) WEB-DL 720p

1301 | 330

2.32 ГБ

В этой теме нет новых непрочитанных сообщений. Белка и Стрелка: Лунные приключения (2013) WEB-DLRip

459 | 103

699.2 МБ

В этой теме нет новых непрочитанных сообщений. Белка и Стрелка: Лунные приключения (2013) HDRip | Лицензия

385 | 88

699.6 МБ

В этой теме нет новых непрочитанных сообщений. Белка и Стрелка: Лунные приключения (2013) BDRip-AVC от ExKinoRay

97 | 43

1.51 ГБ




Вы не можете начинать темы
Вы не можете отвечать на сообщения
Вы не можете редактировать свои сообщения
Вы не можете удалять свои сообщения
Вы не можете добавлять вложения

Перейти:  
 Вход
ppkBB3cker v.2 © 2008-2014 @ PPK
[ Time : 0.028s | 15 Queries | GZIP : Off ]

cron