img image001 image001 image001 image001 image001 image001 image001 image001 image001 image001 image001 image001 image001 image001 image001 image001

Planets Sun Sun Sun
Статистика раздачи
Автор: Снежана | Размер: 1.54 ГБ | Добавлен: 24 июл 2013
Раздают: 167    Качают: 9
Скачать торрент
Скачать торрент
Описание торрента

СообщениеДобавлено: 24 июл 2013 

#77

Информация о фильме
Оригинальное название: Вовочка
Год выхода: 2002
Жанр: комедия, семейный
Режиссер: Игорь Мужжухин
В ролях: Алексей Гуськов, Никита Каракозов, Вера Новикова, Михаил Пореченков, Юрий Шевчук, Николай Сорокин, Виктор Степанов, Инна Ульянова, Максим Емельянов, Маша Жигунова, Иван Васильев, Мария Жигунова, Сергей Жигунов, Сергей Степанченко, Александр Игнатьев, Ольга Блок-Миримская, Геннадий Юхтин, Сергей Колесников

О фильме:
Вовочка - не герой анекдотов, Вовочка - реальный 10-летний мальчишка, непосредственный и неугомонный, выдумщик и озорник, который невольно доставляет взрослым массу хлопот. С приездом Вовочки в канун Новогодних праздников на дачу, жизнь тихого подмосковного поселка взрывается в прямом и переносном смысле…


Страна: Россия
Студия: "Свет"
Продолжительность: 01:35:54
Перевод: Русский

Файл
Кодек: DivX
Качество: DVDRip
Видео: DivX, 1837 Кбит/с, 720x448
Звук: AC3, 6 ch, 448 Кбит/с

Семпл






Общее
Полное имя : Vovochka.2002.DivX.DVDRip.avi
Формат : AVI
Формат/Информация : Audio Video Interleave
Размер файла : 1,54 Гбайт
Продолжительность : 1 ч. 35 м.
Общий поток : 2295 Кбит/сек
Программа кодирования : VirtualDubMod 1.5.10.2 (build 2540/release)
Библиотека кодирования : VirtualDubMod build 2540/release

Видео
Идентификатор : 0
Формат : MPEG-4 Visual
Параметр BVOP формата : 1
Параметр QPel формата : Нет
Параметр GMC формата : Без точки перехода
Параметр матрицы формата : Default (H.263)
Режим смешивания : Сжатый битовый поток
Идентификатор кодека : DX50
Идентификатор кодека/Подсказка : DivX 5
Продолжительность : 1 ч. 35 м.
Битрейт : 1837 Кбит/сек
Ширина : 720 пикселей
Высота : 448 пикселей
Соотношение сторон : 1,607
Частота кадров : 25,000 кадров/сек
Цветовое пространство : YUV
Субдискретизация насыщенности : 4:2:0
Битовая глубина : 8 бит
Тип развёртки : Прогрессивная
Метод сжатия : С потерями
Бит/(Пиксели*Кадры) : 0.228
Размер потока : 1,23 Гбайт (80%)
Библиотека кодирования : DivX 6.8.5 (UTC 2009-08-20)

Аудио
Идентификатор : 1
Формат : AC-3
Формат/Информация : Audio Coding 3
Расширение режима : CM (complete main)
Параметр Endianness формата : Big
Идентификатор кодека : 2000
Продолжительность : 1 ч. 35 м.
Вид битрейта : Постоянный
Битрейт : 448 Кбит/сек
Каналы : 6 каналов
Расположение каналов : Front: L C R, Side: L R, LFE
Частота : 48,0 КГц
Битовая глубина : 16 бит
Метод сжатия : С потерями
Размер потока : 307 Мбайт (20%)
Выравнивание : Разделение по промежуткам
Продолжительность промежутка : 40 мс. (1,00 видеокадр)
Время предзагрузки промежутка : 500 мс.



   Похожие торренты   Торрент   Размер 
В этой теме нет новых непрочитанных сообщений. Новогодний концерт Венского филармонического оркестра 2002 / Neujahrskonzert der Wiener Philharmoniker 2002 (2002) BDRip 720p от ivandubskoj

32 | 1

4.38 ГБ

В этой теме нет новых непрочитанных сообщений. Камчатка / Kamchatka DVDRip (2002) DVDRip | L1

22 | 13

1.79 ГБ

В этой теме нет новых непрочитанных сообщений. Морозов В., Обухович В., Сидоренко С. - Энциклопедия современной военной авиации 1945-2002 (2002) FB2

78 | 4

36.47 МБ

В этой теме нет новых непрочитанных сообщений. VA - Fashion TV Spring Summer 2002 Collection (2002) MP3 от Vanila

5 | 0

178.15 МБ

В этой теме нет новых непрочитанных сообщений. Два барашка (2002) DVDRip

6 | 3

53.16 МБ

В этой теме нет новых непрочитанных сообщений. Все или ничего / All or Nothing (2002) DVDRip

135 | 33

2.18 ГБ

В этой теме нет новых непрочитанных сообщений. Олигарх (2002) DVDRip-AVC

119 | 16

1.46 ГБ




Вы не можете начинать темы
Вы не можете отвечать на сообщения
Вы не можете редактировать свои сообщения
Вы не можете удалять свои сообщения
Вы не можете добавлять вложения

Перейти:  
 Вход
ppkBB3cker v.2 © 2008-2014 @ PPK
[ Time : 0.019s | 15 Queries | GZIP : Off ]

cron