img image001 image001 image001 image001 image001 image001 image001 image001 image001 image001 image001 image001 image001 image001 image001 image001

Planets Sun Sun Sun
Статистика раздачи
Автор: Снежана | Размер: 745.12 МБ | Добавлен: 16 окт 2018
Раздают: 10    Качают: 0
Скачать торрент
Скачать торрент
Описание торрента

СообщениеДобавлено: 16 окт 2018 

Информация о фильме
Название: Изморозь
Год выпуска: 2018
Жанр: Мелодрама
Режиссер: Валерий Цыбин
В ролях: Нина Гусева, Евгений Морозов, Антон Филипенко, Любава Грешнова, Татьяна Чернопятова, Артемий Падалка, Дмитрий Комов
О фильме:
Мужчины обходят вниманием робкую и тихую Олю. Мама, подруги, работа – вот и вся ее личная жизнь. Но однажды рядом с ней оказываются сразу двое мужчин! Иннокентий (Антон Филипенко) – обаятельный красавец. Он галантно ухаживает и помогает достать редкое лекарство для матери. А случайный знакомый Андрей (Евгений Морозов) – простой охранник в банке и отец-одиночка. Он спасает Ольгу от хулиганов в парке. Ольга влюбляется в Иннокентия, но в трудную минуту и Андрей оказывается рядом. Она и не подозревает, что у ее кавалеров есть общее прошлое…

Страна: Россия
Студия: Кинокомпания «Русское»
Продолжительность: 01:29:07
Перевод: Не требуется
Субтитры: нет
Файл
Формат: avi
Качество: WEB-DLRip
Видео: XviD build 73, 688x384 (16:9), 25.000 fps, 1031 Kbps (0.156 bit/pixel)
Звук: 48.0 kHz, MP3, 2/0 ch, 128 kbps
General
Complete name : D:RazdachiIzmorozj.2017.XviD.WEB-DLRip.GeneralFilm.avi
Format : AVI
Format/Info : Audio Video Interleave
File size : 745 MiB
Duration : 1 h 29 min
Overall bit rate : 1 169 kb/s
Writing application : VirtualDubMod 1.5.10.3 | www.virtualdub-fr.org || (build 2550/release)
Writing library : VirtualDubMod build 2550/release
Video
ID : 0
Format : MPEG-4 Visual
Format profile : Advanced Simple@L5
Format settings, BVOP : 1
Format settings, QPel : No
Format settings, GMC : No warppoints
Format settings, Matrix : Custom
Codec ID : XVID
Codec ID/Hint : XviD
Duration : 1 h 29 min
Bit rate : 1 031 kb/s
Width : 688 pixels
Height : 384 pixels
Display aspect ratio : 16:9
Frame rate : 25.000 FPS
Color space : YUV
Chroma subsampling : 4:2:0
Bit depth : 8 bits
Scan type : Progressive
Compression mode : Lossy
Bits/(Pixel*Frame) : 0.156
Stream size : 657 MiB (88%)
Writing library : XviD 73
Audio
ID : 1
Format : MPEG Audio
Format version : Version 1
Format profile : Layer 3
Codec ID : 55
Codec ID/Hint : MP3
Duration : 1 h 29 min
Bit rate mode : Constant
Bit rate : 128 kb/s
Channel(s) : 2 channels
Sampling rate : 48.0 kHz
Compression mode : Lossy
Stream size : 81.6 MiB (11%)
Alignment : Aligned on interleaves
Interleave, duration : 40 ms (1.00 video frame)
Interleave, preload duratio : 504 ms
Writing library : LAME3.99r
Encoding settings : -m s -V 4 -q 2 -lowpass 17 -b 128

Релиз от:



   Похожие торренты   Торрент   Размер 
В этой теме нет новых непрочитанных сообщений. Изморозь (2018) WEB-DLRip от Files-x

189 | 12

1.36 ГБ

В этой теме нет новых непрочитанных сообщений. Изморозь (2018) WEB-DLRip-AVC от Files-x

20 | 2

1.37 ГБ

В этой теме нет новых непрочитанных сообщений. Изморозь (2018) HDTVRip от Portablius

24 | 0

745.24 МБ

В этой теме нет новых непрочитанных сообщений. Изморозь (2017) WEB-DL 720p от Files-x

29 | 0

1.67 ГБ

В этой теме нет новых непрочитанных сообщений. Изморозь (2017) WEB-DL 1080p от Files-x

11 | 0

4.47 ГБ

В этой теме нет новых непрочитанных сообщений. Изморозь - Дискография (2007-2013) MP3

50 | 179

944.63 МБ

В этой теме нет новых непрочитанных сообщений. Изморозь (2017) HDTVRip 720p от MediaClub

56 | 4

2.59 ГБ




Вы не можете начинать темы
Вы не можете отвечать на сообщения
Вы не можете редактировать свои сообщения
Вы не можете удалять свои сообщения
Вы не можете добавлять вложения

Перейти:  
 Вход
ppkBB3cker v.2 © 2008-2014 @ PPK
[ Time : 0.026s | 16 Queries | GZIP : Off ]

cron