img image001 image001 image001 image001 image001 image001 image001 image001 image001 image001 image001 image001 image001 image001 image001 image001

Planets Sun Sun Sun
Статистика раздачи
Автор: Снежана | Размер: 1.33 ГБ | Добавлен: 18 июл 2018
Раздают: 178    Качают: 16
Скачать торрент
Скачать торрент
Описание торрента

СообщениеДобавлено: 18 июл 2018 

Информация о фильме
Название: Фото на память
Год выхода: 2018
Жанр: Триллер, ужасы
Страна: Россия
Перевод: Не требуется
Продолжительность: 01:13:41
Режиссер: Антон Зенкович
В ролях: Ирина Темичева, Степан Юрпалов, Анастасия Уколова, Санжар Мади, Гарик Петросян, Егор Харламов, Софья Зайка и др.
О фильме: Неожиданная авария заставляет компанию молодых людей свернуть в старый дом, где, к своему удивлению, среди множества жутких фотографий, они находят снимок их разбитого автомобиля. К тому же в одной из комнат обнаруживается старинный фотоаппарат, на который возможно и сделаны страшные снимки. Молодые люди оказываются втянуты в несущую смерть, кровавую карусель… Убивает ли фотоаппарат? Случайны ли происходящие с ними события? Всё это предстоит выяснить оказавшимся в безвыходной ситуации героям.

Файл
Формат: AVI
Качество: WEB-DLRip
Видео: Xvid, 720x304, ~2200 kbps, 24,000 fps
Звук: русский, AC3 5.1, 48 kHz, 384 kbps | iTunes
Субтитры: нет
General
Полное имя : F:TorrentFotoNaPamyatAVI.avi
Формат : AVI
Формат/Информация : Audio Video Interleave
Размер файла : 1.33 GiB
Продолжительность : 1 h 13 min
Общий поток : 2 591 kb/s
Библиотека кодирования : VirtualDub build 35491/release
Video
Идентификатор : 0
Формат : MPEG-4 Visual
Профиль формата : Advanced Simple@L5
Настройки формата : BVOP2 / Custom Matrix
Параметр BVOP формата : 2
Параметр QPel формата : No
Параметр GMC формата : No warppoints
Параметр матрицы формата : Custom
Идентификатор кодека : XVID
Идентификатор кодека/Подсказка : XviD
Продолжительность : 1 h 13 min
Битрейт : 2 198 kb/s
Ширина : 720 pixels
Высота : 304 pixels
Соотношение сторон : 2.35:1
Частота кадров : 24.000 FPS
Цветовое пространство : YUV
Субдискретизация насыщенности : 4:2:0
Битовая глубина : 8 bits
Тип развёртки : Progressive
Метод сжатия : Lossy
Бит/(Пиксели*Кадры) : 0.418
Размер потока : 1.13 GiB (85%)
Библиотека кодирования : XviD 67
Audio
Идентификатор : 1
Формат : AC-3
Формат/Информация : Audio Coding 3
Идентификатор кодека : 2000
Продолжительность : 1 h 13 min
Вид битрейта : Constant
Битрейт : 384 kb/s
Каналы : 6 channels
Расположение каналов : Front: L C R, Side: L R, LFE
Частота : 48.0 kHz
Частота кадров : 31.250 FPS (1536 SPF)
Битовая глубина : 16 bits
Метод сжатия : Lossy
Размер потока : 202 MiB (15%)
Выравнивание : Aligned on interleaves
Продолжительность промежутка : 42 ms (1.00 video frame)
Время предзагрузки промежутка : 512 ms





   Похожие торренты   Торрент   Размер 
В этой теме нет новых непрочитанных сообщений. Фото на память (2018) WEB-DL 1080p | iTunes

290 | 12

2.55 ГБ

В этой теме нет новых непрочитанных сообщений. Фото на недобрую память (2016) WEB-DLRip от MegaPeer

82 | 6

1.46 ГБ

В этой теме нет новых непрочитанных сообщений. Фото на недобрую память (2016) WEB-DLRip от ImperiaFilm | КПК

28 | 0

437.97 МБ

В этой теме нет новых непрочитанных сообщений. Фото на недобрую память (2016) WEB-DLRip 720p от MegaPeer

12 | 0

1.86 ГБ

В этой теме нет новых непрочитанных сообщений. Фото на недобрую память (Алина Чеботарёва) [2016, мелодрама, криминал, WEB-DLRip]

13 | 0

745.14 МБ

В этой теме нет новых непрочитанных сообщений. Фото на недобрую память (2016) DVB от Files-x

60 | 6

2.74 ГБ

В этой теме нет новых непрочитанных сообщений. Фото на недобрую память (2016) SATRip-AVC от Files-x

18 | 0

1.38 ГБ




Вы не можете начинать темы
Вы не можете отвечать на сообщения
Вы не можете редактировать свои сообщения
Вы не можете удалять свои сообщения
Вы не можете добавлять вложения

Перейти:  
 Вход
ppkBB3cker v.2 © 2008-2014 @ PPK
[ Time : 0.021s | 16 Queries | GZIP : Off ]

cron