img image001 image001 image001 image001 image001 image001 image001 image001 image001 image001 image001 image001 image001 image001 image001 image001

Planets Sun Sun Sun
Статистика раздачи
Автор: Снежана | Размер: 1.09 ГБ | Добавлен: 18 июл 2018
Раздают: 5    Качают: 1
Скачать торрент
Скачать торрент
Описание торрента

СообщениеДобавлено: 18 июл 2018 

Страна: СССР
Производство: Одесская киностудия
Жанр: драма
Год выпуска: 1960
Продолжительность: 01:18:05
Перевод: Не требуется
Cубтитры: нет
Оригинальная аудиодорожка: русский
Режиссер: Михаил Терещенко
В ролях:
Генрих Осташевский, Наталья Богомолова, Василий Векшин, Людмила Татьянчук, Александр Гай, Всеволод Якут, Яков Павлов, Пётр Вишняков, Семён Кошачевский, Василий Бидяк...
Об актёрах подробней
Описание:
Стефан Суббота, эмигрировав в Америку, пятнадцать лет скитался в поисках заработков. Накопив денег, герой обзавелся небольшой фермой и с приходом весны приехал в родное село на Украину, где все эти годы ждала его Христина. Многое изменилось в жизни Закарпатья - и как ни любила его Христина, а ехать с ним отказалась. Стефан, решив провести в родных краях лето, устроился на временную работу, перестал сокрушаться по брошенной ферме - и, в конце концов, остался здесь навсегда.





Исходник: DVB
Качество видео: SATRip-AVC
Формат видео: MKV
Видео: 700->752x564 (4:3), 25,000 кадров/сек, H264 ~ 1803 kbps avg, 0.183 bit/pixel
Аудио: 48 kHz, Dolby Digital AC3 2.0, 192 kbps
Раздача от:
Общее
Полное имя : Vozvrashchenie.1960.SATRip-AVC_[New-team]_by_AVP_Studio.mkv
Формат : Matroska
Версия формата : Version 2
Размер файла : 1,09 Гбайт
Продолжительность : 1 ч. 18 м.
Общий поток : 1997 Кбит/сек
Дата кодирования : UTC 2018-07-14 14:44:09
Программа кодирования : mkvmerge v6.1.0 ('Old Devil') built on Mar 4 2013 09:10:42
Библиотека кодирования : libebml v1.3.0 + libmatroska v1.4.0
Видео
Идентификатор : 1
Формат : AVC
Формат/Информация : Advanced Video Codec
Профиль формата : High@L4.1
Настройки формата : CABAC / 10 Ref Frames
Параметр CABAC формата : Да
Параметр RefFrames формата : 10 кадров
Идентификатор кодека : V_MPEG4/ISO/AVC
Продолжительность : 1 ч. 18 м.
Битрейт : 1803 Кбит/сек
Ширина : 700 пикселей
Высота : 564 пикселя
Соотношение сторон : 4:3
Режим частоты кадров : Постоянный
Частота кадров : 25,000 кадров/сек
Цветовое пространство : YUV
Субдискретизация насыщенности : 4:2:0
Битовая глубина : 8 бит
Тип развёртки : Прогрессивная
Бит/(Пиксели*Кадры) : 0.183
Размер потока : 986 Мбайт (88%)
Библиотека кодирования : x264 core 130 r2273 b3065e6
Настройки программы : cabac=1 / ref=10 / deblock=1:-2:-1 / analyse=0x3:0x113 / me=umh / subme=10 / psy=1 / psy_rd=1.00:0.00 / mixed_ref=1 / me_range=32 / chroma_me=1 / trellis=2 / 8x8dct=1 / cqm=0 / deadzone=21,11 / fast_pskip=1 / chroma_qp_offset=-2 / threads=6 / lookahead_threads=1 / sliced_threads=0 / nr=0 / decimate=0 / interlaced=0 / bluray_compat=0 / constrained_intra=0 / bframes=8 / b_pyramid=2 / b_adapt=2 / b_bias=0 / direct=3 / weightb=1 / open_gop=0 / weightp=2 / keyint=250 / keyint_min=25 / scenecut=40 / intra_refresh=0 / rc=2pass / mbtree=0 / bitrate=1803 / ratetol=1.0 / qcomp=0.60 / qpmin=0 / qpmax=69 / qpstep=4 / cplxblur=20.0 / qblur=0.5 / ip_ratio=1.40 / pb_ratio=1.30 / aq=1:1.00
Default : Да
Forced : Нет
Аудио
Идентификатор : 2
Формат : AC-3
Формат/Информация : Audio Coding 3
Идентификатор кодека : A_AC3
Продолжительность : 1 ч. 18 м.
Вид битрейта : Постоянный
Битрейт : 192 Кбит/сек
Каналы : 2 канала
Расположение каналов : Front: L R
Частота : 48,0 КГц
Частота кадров : 31,250 кадров/сек (1536 SPF)
Битовая глубина : 16 бит
Метод сжатия : С потерями
Размер потока : 107 Мбайт (10%)
Default : Да
Forced : Нет





   Похожие торренты   Торрент   Размер 
В этой теме нет новых непрочитанных сообщений. Возвращение (1960) SATRip от New-Team

8 | 1

1.09 ГБ

В этой теме нет новых непрочитанных сообщений. Тишина (1960) SATRip от New-Team

21 | 2

1.09 ГБ

В этой теме нет новых непрочитанных сообщений. Чудотворная (1960) SATRip-AVC от New-Team

5 | 1

1.09 ГБ

В этой теме нет новых непрочитанных сообщений. Чудотворная (1960) SATRip от New-Team

5 | 0

1.09 ГБ

В этой теме нет новых непрочитанных сообщений. Тишина (1960) SATRip-AVC от New-Team

12 | 1

1.09 ГБ

В этой теме нет новых непрочитанных сообщений. Ловцы губок (1960) SATRip от New-Team

7 | 1

1.09 ГБ

В этой теме нет новых непрочитанных сообщений. Хлеб и розы (1960) SATRip-AVC от New-Team

11 | 1

1.09 ГБ




Вы не можете начинать темы
Вы не можете отвечать на сообщения
Вы не можете редактировать свои сообщения
Вы не можете удалять свои сообщения
Вы не можете добавлять вложения

Перейти:  
 Вход
ppkBB3cker v.2 © 2008-2014 @ PPK
[ Time : 0.019s | 16 Queries | GZIP : Off ]

cron