img image001 image001 image001 image001 image001 image001 image001 image001 image001 image001 image001 image001 image001 image001 image001 image001

Planets Sun Sun Sun
Статистика раздачи
Автор: Снежана | Размер: 1.09 ГБ | Добавлен: 18 июл 2018
Раздают: 17    Качают: 0
Скачать торрент
Скачать торрент
Описание торрента

СообщениеДобавлено: 18 июл 2018 

Страна: СССР
Производство: Таджикфильм
Жанр: боевик, приключения
Год выпуска: 1960
Продолжительность: 01:23:11
Перевод: Не требуется
Cубтитры: нет
Оригинальная аудиодорожка: русский
Режиссер: Дмитрий Васильев
В ролях:
Василий Макаров, Олег Жаков, Леонид Чубаров, Т. Ишанходжаев, Гурминдж Завкибеков, Шамси Киямов, Г. Ниязов, Сталина Азаматова, Галина Фролова, Пулат Ахмедов, Абдульхайр Касымов, Константин Старостин...
Об актёрах подробней
Описание:
"Собака явно дрессированная. Людей не подпускает к себе, на приманку не идёт", - докладывали часовые секретного объекта. Эту собаку много раз видели здесь. Вероятно, на неё надевают микрофотоаппарат. Хозяин этой собаки был задержан у самой границы. Среди вещей диверсанта оказалась дудочка: с её помощью он отсылал и возвращал собаку. Диверсант успел застрелиться при задержании...





Исходник: DVB
Качество видео: SATRip
Формат видео: AVI
Видео: 704x528 (4:3), 25,000 кадров/сек, XviD ~ 1674 kbps avg, 0.180 bit/pixel
Аудио: 48 kHz, Dolby Digital AC3 2.0, 192 kbps
Раздача от:
Общее
Полное имя : Operaciya.Kobra.1960.SATRip_[New-team]_by_AVP_Studio.avi
Формат : AVI
Формат/Информация : Audio Video Interleave
Размер файла : 1,09 Гбайт
Продолжительность : 1 ч. 23 м.
Общий поток : 1876 Кбит/сек
Программа кодирования : VirtualDubMod 1.5.10.3 | www.virtualdub-fr.org || (build 2550/release)
Библиотека кодирования : VirtualDubMod build 2550/release
Видео
Идентификатор : 0
Формат : MPEG-4 Visual
Профиль формата : Advanced Simple@L5
Настройки формата : BVOP1 / Custom Matrix
Параметр BVOP формата : 1
Параметр QPel формата : Нет
Параметр GMC формата : Без точки перехода
Параметр матрицы формата : Выборочная
Идентификатор кодека : XVID
Идентификатор кодека/Подсказка : XviD
Продолжительность : 1 ч. 23 м.
Битрейт : 1674 Кбит/сек
Ширина : 704 пикселя
Высота : 528 пикселей
Соотношение сторон : 4:3
Частота кадров : 25,000 кадров/сек
Цветовое пространство : YUV
Субдискретизация насыщенности : 4:2:0
Битовая глубина : 8 бит
Тип развёртки : Прогрессивная
Метод сжатия : С потерями
Бит/(Пиксели*Кадры) : 0.180
Размер потока : 996 Мбайт (89%)
Библиотека кодирования : XviD 73
Аудио
Идентификатор : 1
Формат : AC-3
Формат/Информация : Audio Coding 3
Идентификатор кодека : 2000
Продолжительность : 1 ч. 23 м.
Вид битрейта : Постоянный
Битрейт : 192 Кбит/сек
Каналы : 2 канала
Расположение каналов : Front: L R
Частота : 48,0 КГц
Частота кадров : 31,250 кадров/сек (1536 SPF)
Битовая глубина : 16 бит
Метод сжатия : С потерями
Размер потока : 114 Мбайт (10%)
Выравнивание : Разделение по промежуткам
Продолжительность промежутка : 40 мс. (1,00 видеокадр)
Время предзагрузки промежутка : 500 мс





   Похожие торренты   Торрент   Размер 
В этой теме нет новых непрочитанных сообщений. Операция «Кобра» (1960) SATRip-AVC от New-Team

29 | 5

1.09 ГБ

В этой теме нет новых непрочитанных сообщений. Тишина (1960) SATRip-AVC от New-Team

12 | 1

1.09 ГБ

В этой теме нет новых непрочитанных сообщений. Чудотворная (1960) SATRip-AVC от New-Team

5 | 1

1.09 ГБ

В этой теме нет новых непрочитанных сообщений. Чудотворная (1960) SATRip от New-Team

5 | 0

1.09 ГБ

В этой теме нет новых непрочитанных сообщений. Тишина (1960) SATRip от New-Team

21 | 2

1.09 ГБ

В этой теме нет новых непрочитанных сообщений. Возвращение (1960) SATRip-AVC от New-Team

5 | 1

1.09 ГБ

В этой теме нет новых непрочитанных сообщений. Возвращение (1960) SATRip от New-Team

8 | 1

1.09 ГБ




Вы не можете начинать темы
Вы не можете отвечать на сообщения
Вы не можете редактировать свои сообщения
Вы не можете удалять свои сообщения
Вы не можете добавлять вложения

Перейти:  
 Вход
ppkBB3cker v.2 © 2008-2014 @ PPK
[ Time : 0.024s | 19 Queries | GZIP : Off ]

cron