img image001 image001 image001 image001 image001 image001 image001 image001 image001 image001 image001 image001 image001 image001 image001 image001

Planets Sun Sun Sun
Статистика раздачи
Автор: Снежана | Размер: 2.18 ГБ | Добавлен: 18 июл 2018
Раздают: 6    Качают: 3
Скачать торрент
Скачать торрент
Описание торрента

СообщениеДобавлено: 18 июл 2018 

Страна: СССР
Производство: Беларусьфильм
Жанр: кинороман, экранизация
Год выпуска: 1960-1961
Продолжительность: 02:53:39 (01:28:13 + 01:25:26)
Перевод: Не требуется
Cубтитры: нет
Оригинальная аудиодорожка: русский
Режиссер: Владимир Корш-Саблин
В ролях:
Эдуард Изотов, Наталья Кустинская, Елена Корнилова, Иван Шатило, Юрий Дедович, Игорь Сретенский, Николай Ерёменко (ст.), Александр Кистов, Глеб Глебов, Виктор Тарасов, Александр Ильинский, Михаил Названов, Анатолий Кацинский, Павел Молчанов, Геннадий Мичурин, Фёдор Шмаков, Владимир Балашов, Владимир Соловьёв...
Об актёрах подробней
Описание:
Действие фильма начинается во время революции 1905 года. Молодой учитель Андрей Лобанович (Эдуард Изотов)приезжает работать в белорусское село Тельшино. Выполняя обещание другу, погибшему от руки царского сыщика, Лобанович вступает в фиктивный брак с революционеркой Ольгой Андросовой. В ночь на Ивана Купалу возле костра в лесу собрался съезд учителей. Неожиданно появившиеся жандармы разогнали сходку и арестовали руководителя. Вскоре их всех уволили из школ. Лобанович тоже оказался без работы. Он ещё раз встретился с Ядвисей. Она говорила, что уйдет от мужа, что любит только Андрея. Но на следующее свидание Ядвися не пришла...





Источник: DVD9 R5
Качество видео: DVDRip-AVC
Формат видео: MKV
Видео: 716->760x570 (4:3), 25 fps, H264 ~ 1601 kbps avg, 0.157 bit/pixel
Аудио: 48 kHz, Dolby Digital AC3 2.0, 192 kbps
Раздача от:
Общее
Полное имя : Pervye.ispytaniya.1960.DVDRip-AVC_[New-team]_by_AVP_StudioСерия 01.mkv
Формат : Matroska
Версия формата : Version 2
Размер файла : 1,11 Гбайт
Продолжительность : 1 ч. 28 м.
Общий поток : 1795 Кбит/сек
Дата кодирования : UTC 2018-06-26 12:56:06
Программа кодирования : mkvmerge v6.1.0 ('Old Devil') built on Mar 4 2013 09:10:42
Библиотека кодирования : libebml v1.3.0 + libmatroska v1.4.0
Видео
Идентификатор : 1
Формат : AVC
Формат/Информация : Advanced Video Codec
Профиль формата : High@L4.1
Настройки формата : CABAC / 10 Ref Frames
Параметр CABAC формата : Да
Параметр RefFrames формата : 10 кадров
Идентификатор кодека : V_MPEG4/ISO/AVC
Продолжительность : 1 ч. 28 м.
Битрейт : 1601 Кбит/сек
Ширина : 716 пикселей
Высота : 570 пикселей
Соотношение сторон : 4:3
Режим частоты кадров : Постоянный
Частота кадров : 25,000 кадров/сек
Цветовое пространство : YUV
Субдискретизация насыщенности : 4:2:0
Битовая глубина : 8 бит
Тип развёртки : Прогрессивная
Бит/(Пиксели*Кадры) : 0.157
Размер потока : 989 Мбайт (87%)
Библиотека кодирования : x264 core 130 r2273 b3065e6
Настройки программы : cabac=1 / ref=10 / deblock=1:-2:-1 / analyse=0x3:0x113 / me=umh / subme=10 / psy=1 / psy_rd=1.00:0.00 / mixed_ref=1 / me_range=32 / chroma_me=1 / trellis=2 / 8x8dct=1 / cqm=0 / deadzone=21,11 / fast_pskip=1 / chroma_qp_offset=-2 / threads=6 / lookahead_threads=1 / sliced_threads=0 / nr=0 / decimate=0 / interlaced=0 / bluray_compat=0 / constrained_intra=0 / bframes=8 / b_pyramid=2 / b_adapt=2 / b_bias=0 / direct=3 / weightb=1 / open_gop=0 / weightp=2 / keyint=250 / keyint_min=25 / scenecut=40 / intra_refresh=0 / rc=2pass / mbtree=0 / bitrate=1601 / ratetol=1.0 / qcomp=0.60 / qpmin=0 / qpmax=69 / qpstep=4 / cplxblur=20.0 / qblur=0.5 / ip_ratio=1.40 / pb_ratio=1.30 / aq=1:1.00
Default : Да
Forced : Нет
Аудио
Идентификатор : 2
Формат : AC-3
Формат/Информация : Audio Coding 3
Идентификатор кодека : A_AC3
Продолжительность : 1 ч. 28 м.
Вид битрейта : Постоянный
Битрейт : 192 Кбит/сек
Каналы : 2 канала
Расположение каналов : Front: L R
Частота : 48,0 КГц
Частота кадров : 31,250 кадров/сек (1536 SPF)
Битовая глубина : 16 бит
Метод сжатия : С потерями
Размер потока : 121 Мбайт (11%)
Default : Да
Forced : Нет





   Похожие торренты   Торрент   Размер 
В этой теме нет новых непрочитанных сообщений. Первые испытания (1960) DVDRip от New-Team

5 | 0

2.18 ГБ

В этой теме нет новых непрочитанных сообщений. Первые испытания (1960-1961) DVB от AND03AND

4 | 2

3.04 ГБ

В этой теме нет новых непрочитанных сообщений. Первые фильмы: В горах моё сердце / Сегодня увольнения не будет / Аптекарша (1958-1967) DVDRip от New-Team

11 | 0

1.45 ГБ

В этой теме нет новых непрочитанных сообщений. Первые фильмы: В горах моё сердце / Сегодня увольнения не будет / Аптекарша (1958-1967) DVDRip-AVC от New-Team

26 | 2

1.46 ГБ

В этой теме нет новых непрочитанных сообщений. Прерванная песня (1960) DVDRip от New-Team

8 | 6

1.09 ГБ

В этой теме нет новых непрочитанных сообщений. Прерванная песня (1960) DVDRip-AVC от New-Team

6 | 2

1.09 ГБ

В этой теме нет новых непрочитанных сообщений. Трижды воскресший (1960) DVDRip-AVC от New-Team

14 | 8

1.09 ГБ




Вы не можете начинать темы
Вы не можете отвечать на сообщения
Вы не можете редактировать свои сообщения
Вы не можете удалять свои сообщения
Вы не можете добавлять вложения

Перейти:  
 Вход
ppkBB3cker v.2 © 2008-2014 @ PPK
[ Time : 0.025s | 16 Queries | GZIP : Off ]

cron