img image001 image001 image001 image001 image001 image001 image001 image001 image001 image001 image001 image001 image001 image001 image001 image001

Planets Sun Sun Sun
Статистика раздачи
Автор: Снежана | Размер: 699.17 МБ | Добавлен: 26 июн 2018
Раздают: 4    Качают: 1
Скачать торрент
Скачать торрент
Описание торрента

СообщениеДобавлено: 26 июн 2018 

Информация о фильме
Название: Враги
Год выхода: 2007
Жанр: Драма, военный
Режиссер: Мария Можар
В ролях: Юлия Ауг, Аксель Шрик, Елена Яцко, Геннадий Гарбук, Алеся Пуховая, Зинаида Зубкова, Иван Мацкевич, Денис Тарасенко, Олег Ткачёв, Андрей Гладкий, Вячеслав Павлють, Елена Валюшкина, Ольга Антропова, Виктор Васильев, Иван Латушко, Михаил Волчек
О фильме: 1942. Война ушла далеко на восток. Жизнь районного центра, где обосновалось немецкое руководство, входит в русло "нормы". Немцы учат русский язык, пытаются заигрывать с местными молодками. Женщины стирают немцам, кормят их, а кто-то и заводит с постояльцами отношения. Надо жить дальше... Подросток — сын главной героини — пытается убежать к партизанам, совершает подрыв немецкого эшелона, чтобы его в партизаны приняли. Мальчика ловят. Немцы должны его казнить, чтобы "другим неповадно было". Таков приказ, ослушаться нельзя. Немцы понимают, что казнь ребенка положит конец их спокойной жизни. Особенно хорошо понимает это местный комендант, который находится в близких отношениях с матерью мальчика. Но и нарушить приказ командования он не может.

Страна: Россия, Беларусь
Студия: Беларусфильм, Studio Rock
Продолжительность: 01:18:04
Перевод: Не требуется
Субтитры: Нет
Файл
Кодек: XviD
Качество: HDTVRip
Видео: 720x304 (2.37:1), 25 fps, XviD build 73 ~1050 kbps avg, 0.19 bit/pixel
Звук: 48 kHz, MPEG Layer 3, 2 ch, ~192.00 kbps avg
General
Complete name : Vragi.2007.HDTVRip.ot.Portablius.avi
Format : AVI
Format/Info : Audio Video Interleave
File size : 699 MiB
Duration : 1 h 18 min
Overall bit rate : 1 252 kb/s
Writing application : VirtualDubMod 1.5.10.3 | www.virtualdub-fr.org || (build 2550/release)
Writing library : VirtualDubMod build 2550/release
Video
ID : 0
Format : MPEG-4 Visual
Format profile : Advanced Simple@L5
Format settings, BVOP : 1
Format settings, QPel : No
Format settings, GMC : No warppoints
Format settings, Matrix : Custom
Codec ID : XVID
Codec ID/Hint : XviD
Duration : 1 h 18 min
Bit rate : 1 050 kb/s
Width : 720 pixels
Height : 304 pixels
Display aspect ratio : 2.35:1
Frame rate : 25.000 FPS
Color space : YUV
Chroma subsampling : 4:2:0
Bit depth : 8 bits
Scan type : Progressive
Compression mode : Lossy
Bits/(Pixel*Frame) : 0.192
Stream size : 587 MiB (84%)
Writing library : XviD 73
Audio
ID : 1
Format : MPEG Audio
Format version : Version 1
Format profile : Layer 3
Codec ID : 55
Codec ID/Hint : MP3
Duration : 1 h 18 min
Bit rate mode : Constant
Bit rate : 192 kb/s
Channel(s) : 2 channels
Sampling rate : 48.0 kHz
Compression mode : Lossy
Stream size : 107 MiB (15%)
Alignment : Aligned on interleaves
Interleave, duration : 40 ms (1.00 video frame)
Interleave, preload duratio : 504 ms
Writing library : LAME3.99r
Encoding settings : -m s -V 4 -q 2 -lowpass 18.6 -b 192



   Похожие торренты   Торрент   Размер 
В этой теме нет новых непрочитанных сообщений. Враги (2007) HDTVRip-AVC от KORSAR

17 | 3

1.75 ГБ

В этой теме нет новых непрочитанных сообщений. Враги (2007) WEB-DLRip-AVC от Files-x

160 | 15

1.37 ГБ

В этой теме нет новых непрочитанных сообщений. Враги (2007) HDTV 1080i от MediaClub

13 | 2

4.77 ГБ

В этой теме нет новых непрочитанных сообщений. Близкие враги / Intimate Enemies (2007) IPTVRip от Pshichko66

17 | 5

749.95 МБ

В этой теме нет новых непрочитанных сообщений. Лучшие враги [01-30 из 30] (2014) HDTVRip-AVC

7 | 4

16.13 ГБ

В этой теме нет новых непрочитанных сообщений. Из-под земли / Unearthed (2007) HDRip от Portablius | P

10 | 0

697.53 МБ

В этой теме нет новых непрочитанных сообщений. Бандиты / Truands (2007) DVDRip от Portablius | P

3 | 1

698.33 МБ




Вы не можете начинать темы
Вы не можете отвечать на сообщения
Вы не можете редактировать свои сообщения
Вы не можете удалять свои сообщения
Вы не можете добавлять вложения

Перейти:  
 Вход
ppkBB3cker v.2 © 2008-2014 @ PPK
[ Time : 0.016s | 18 Queries | GZIP : Off ]

cron