img image001 image001 image001 image001 image001 image001 image001 image001 image001 image001 image001 image001 image001 image001 image001 image001

Planets Sun Sun Sun
Статистика раздачи
Автор: Nickolas3434 | Размер: 2.19 ГБ | Добавлен: 12 дек 2017
Раздают: 58    Качают: 0
Скачать торрент
Скачать торрент
Описание торрента

СообщениеДобавлено: 12 дек 2017 

Информация о фильме
Название: Голем
Оригинальное название: The Limehouse Golem
Год выпуска: 2016
Страна: Великобритания / BBC Films, StudioCanal.
Жанр: ужасы, триллер
Продолжительность: 01:48:37
Перевод: Профессиональный (дублированный) iTunes
Субтитры: английские (полные, полные SDH)
Оригинальная аудиодорожка: английский
Режиссер: Хуан Карлос Медина / Juan Carlos Medina
В ролях: Оливия Кук, Билл Найи, Дуглас Бут, Эдди Марсан, Мария Вальверде, Сэм Рид, Пол Риттер, Дэниэл Мейс, Питер Салливан, Адам Браун, Генри Гудман, Морган Уоткинс.
Описание: Викторианский Лондон, 1880 год. Опасный район города Лаймхауз потрясает серия жестоких убийств. Напуганные до смерти жители полагают, что в этих чудовищных и безжалостных преступлениях замешан не кто иной, как голем - глиняное существо из мифологии, оживляемое при помощи магии. Панический страх растет, убийства продолжаются. Полиция не знает, что делать, и в качестве козла отпущения главным в этом деле назначается опытный детектив, инспектор Килдэр.

Качество видео: BDRip (исходник: T_LIMEHOUSE_GOLEM_BLUEBIRD)
Формат видео: AVI | Sample
Видео: 720x304 (2.37:1), 24.000 fps, XviD build 73 ~2102 kbps avg, 0.40 bit/pixel
Аудио 1: 48 kHz, AC3 Dolby Digital, 3/2 (L,C,R,l,r) + LFE ch, ~384.00 kbps avg | RUS
Аудио 2: 48 kHz, AC3 Dolby Digital, 3/2 (L,C,R,l,r) + LFE ch, ~384.00 kbps avg | ENG

Формат : AVI
Формат/Информация : Audio Video Interleave
Профиль формата : OpenDML
Размер файла : 2,19 Гбайт
Продолжительность : 1 ч. 48 м.
Общий поток : 2888 Кбит/сек
Название фильма : Голем / The Limehouse Golem (2016)
Программа кодирования : VirtualDubMod 1.5.10.2 (build 2540/release)
Библиотека кодирования : VirtualDubMod build 2540/release
Примечание : BDRip by Seven
Видео
Идентификатор : 0
Формат : MPEG-4 Visual
Профиль формата : Advanced Simple@L5
Параметр BVOP формата : 1
Параметр QPel формата : Нет
Параметр GMC формата : Без точки перехода
Параметр матрицы формата : Выборочная
Идентификатор кодека : XVID
Идентификатор кодека/Подсказка : XviD
Продолжительность : 1 ч. 48 м.
Битрейт : 2102 Кбит/сек
Ширина : 720 пикселей
Высота : 304 пикселя
Соотношение сторон : 2,35:1
Частота кадров : 24,000 кадра/сек
Цветовое пространство : YUV
Субдискретизация насыщенности : 4:2:0
Битовая глубина : 8 бит
Тип развёртки : Прогрессивная
Метод сжатия : С потерями
Бит/(Пиксели*Кадры) : 0.400
Размер потока : 1,60 Гбайт (73%)
Библиотека кодирования : XviD 73
Аудио #1
Идентификатор : 1
Формат : AC-3
Формат/Информация : Audio Coding 3
Параметр Endianness формата : Big
Идентификатор кодека : 2000
Продолжительность : 1 ч. 48 м.
Вид битрейта : Постоянный
Битрейт : 384 Кбит/сек
Каналы : 6 каналов
Расположение каналов : Front: L C R, Side: L R, LFE
Частота : 48,0 КГц
Частота кадров : 31,250 кадров/сек (1536 SPF)
Битовая глубина : 16 бит
Метод сжатия : С потерями
Размер потока : 298 Мбайт (13%)
Выравнивание : Разделение по промежуткам
Продолжительность промежутка : 42 мс. (1,00 видеокадр)
Время предзагрузки промежутка : 500 мс.
Аудио #2
Идентификатор : 2
Формат : AC-3
Формат/Информация : Audio Coding 3
Параметр Endianness формата : Big
Идентификатор кодека : 2000
Продолжительность : 1 ч. 48 м.
Вид битрейта : Постоянный
Битрейт : 384 Кбит/сек
Каналы : 6 каналов
Расположение каналов : Front: L C R, Side: L R, LFE
Частота : 48,0 КГц
Частота кадров : 31,250 кадров/сек (1536 SPF)
Битовая глубина : 16 бит
Метод сжатия : С потерями
Размер потока : 298 Мбайт (13%)
Выравнивание : Разделение по промежуткам
Продолжительность промежутка : 42 мс. (1,00 видеокадр)
Время предзагрузки промежутка : 500 мс.



   Похожие торренты   Торрент   Размер 
В этой теме нет новых непрочитанных сообщений. Голем / The Limehouse Golem (2016) BDRip-AVC от OlLanDGroup | iTunes

48 | 0

1.99 ГБ

В этой теме нет новых непрочитанных сообщений. Голем / The Limehouse Golem (2016) BDRip от MegaPeer | iTunes

1900 | 42

1.41 ГБ

В этой теме нет новых непрочитанных сообщений. Голем / The Limehouse Golem (2016) BDRip-AVC от HELLYWOOD | iTunes

183 | 6

2.13 ГБ

В этой теме нет новых непрочитанных сообщений. Голем / The Limehouse Golem (2016) BDRip-AVC от HELLYWOOD | iTunes

98 | 0

1.41 ГБ

В этой теме нет новых непрочитанных сообщений. Голем / The Limehouse Golem (2016) BDRip от ExKinoRay | iTunes

40 | 0

1.41 ГБ

В этой теме нет новых непрочитанных сообщений. Голем / The Limehouse Golem (2016) BDRip-AVC от New-Team | iTunes

47 | 0

1.41 ГБ

В этой теме нет новых непрочитанных сообщений. Голем / The Limehouse Golem (2016) BDRip-AVC от New-Team | iTunes

32 | 1

745.67 МБ




Вы не можете начинать темы
Вы не можете отвечать на сообщения
Вы не можете редактировать свои сообщения
Вы не можете удалять свои сообщения
Вы не можете добавлять вложения

Перейти:  
 Вход
ppkBB3cker v.2 © 2008-2014 @ PPK
[ Time : 0.031s | 18 Queries | GZIP : Off ]

cron