img image001 image001 image001 image001 image001 image001 image001 image001 image001 image001 image001 image001 image001 image001 image001 image001

Planets Sun Sun Sun
Статистика раздачи
Автор: Nickolas3434 | Размер: 744.78 МБ | Добавлен: 17 ноя 2017
Раздают: 18    Качают: 1
Скачать торрент
Скачать торрент
Описание торрента

СообщениеДобавлено: 17 ноя 2017 

Информация о фильме
Оригинальное название: Черная молния
Год выхода: 2009
Жанр: Фантастика, боевик, приключения, комедия, мелодрама
Режиссер: Александр Войтинский, Дмитрий Киселёв (I)
В ролях: Григорий Добрыгин, Екатерина Вилкова, Иван Жидков, Виктор Вержбицкий, Юозас Будрайтис, Екатерина Васильева (I), Валерий Золотухин, Игорь Савочкин, Сергей Гармаш, Михаил Ефремов, Екатерина Старшова, Дато Бахтадзе, Сергей Легостаев, Елена Валюшкина
О фильме :
Действие картины разворачивается в наши дни, где главный герой, двадцатилетний Дима Майков, получает в подарок от отца старенькую «Волгу-21» и внезапно обнаруживает, что его машина летает, как настоящий истребитель. Герой бесцельно парит над столичными пробками и беззаботно наслаждается полетами, пока однажды беда не заставляет его по-другому взглянуть на мир. Теперь ему предстоит встать на защиту тех, кем он дорожит, и сразиться со Злом в небе над новогодней Москвой.

Страна: Россия
Студия: Universal Pictures
Продолжительность: 01:46:05
Перевод: Не требуется (русский)
Файл
Формат: MKV
Качество: BDRip-AVC (BDRemux 1080p)
Видео: MPEG-4 AVC, 768x332, ~ 905 Кбит/с
Аудио: AAC-LC, 2 ch, ~ 76 Кбит/с
Субтитры: Русские, украинские
Общее
Уникальный идентификатор : 172951658278223364166424561146430279130 (0x821D471B5762B8DAAB914015C3C0CDDA)
Полное имя : D:MOVIESChernaya.molniya.2009.ExKinoRay.mkv
Формат : Matroska
Версия формата : Version 4 / Version 2
Размер файла : 745 Мбайт
Продолжительность : 1 ч. 46 м.
Общий поток : 981 Кбит/сек
Дата кодирования : UTC 2017-11-17 12:44:55
Программа кодирования : mkvmerge v15.0.0 ('Duel with the Devil') 64-bit
Библиотека кодирования : libebml v1.3.5 + libmatroska v1.4.5
Видео
Идентификатор : 1
Формат : AVC
Формат/Информация : Advanced Video Codec
Профиль формата : High@L4.1
Параметр CABAC формата : Да
Параметр RefFrames формата : 10 кадров
Идентификатор кодека : V_MPEG4/ISO/AVC
Продолжительность : 1 ч. 46 м.
Битрейт : 905 Кбит/сек
Ширина : 768 пикселей
Высота : 332 пикселя
Соотношение сторон : 2,35:1
Режим частоты кадров : Постоянный
Частота кадров : 23,976 (24000/1001) кадра/сек
Цветовое пространство : YUV
Субдискретизация насыщенности : 4:2:0
Битовая глубина : 8 бит
Тип развёртки : Прогрессивная
Бит/(Пиксели*Кадры) : 0.148
Размер потока : 685 Мбайт (92%)
Библиотека кодирования : x264 core 152 r2851 ba24899
Настройки программы : cabac=1 / ref=10 / deblock=1:-2:-2 / analyse=0x3:0x133 / me=umh / subme=11 / psy=1 / psy_rd=1.00:0.03 / mixed_ref=1 / me_range=32 / chroma_me=1 / trellis=2 / 8x8dct=1 / cqm=0 / deadzone=21,11 / fast_pskip=0 / chroma_qp_offset=-3 / threads=6 / lookahead_threads=1 / sliced_threads=0 / nr=0 / decimate=0 / interlaced=0 / bluray_compat=0 / constrained_intra=0 / bframes=10 / b_pyramid=2 / b_adapt=2 / b_bias=0 / direct=3 / weightb=1 / open_gop=0 / weightp=2 / keyint=240 / keyint_min=23 / scenecut=40 / intra_refresh=0 / rc_lookahead=40 / rc=2pass / mbtree=0 / bitrate=905 / ratetol=1.0 / qcomp=0.60 / qpmin=0 / qpmax=69 / qpstep=4 / cplxblur=20.0 / qblur=0.5 / vbv_maxrate=50000 / vbv_bufsize=62500 / nal_hrd=none / filler=0 / ip_ratio=1.40 / pb_ratio=1.30 / aq=1:1.00
Default : Да
Forced : Нет
Аудио
Идентификатор : 2
Формат : AAC
Формат/Информация : Advanced Audio Codec
Профиль формата : LC
Идентификатор кодека : A_AAC
Продолжительность : 1 ч. 46 м.
Битрейт : 76,0 Кбит/сек
Каналы : 2 канала
Расположение каналов : Front: L R
Частота : 48,0 КГц
Частота кадров : 46,875 кадров/сек (1024 SPF)
Метод сжатия : С потерями
Задержка видео : 9 мс.
Размер потока : 57,7 Мбайт (8%)
Default : Да
Forced : Нет
Текст #1
Идентификатор : 3
Формат : UTF-8
Идентификатор кодека : S_TEXT/UTF8
Идентификатор кодека/Информация : UTF-8 Plain Text
Продолжительность : 1 ч. 41 м.
Битрейт : 91 бит/сек
ElementCount : 1107
Размер потока : 67,6 Кбайт (0%)
Заголовок : Русские
Язык : Russian
Default : Нет
Forced : Нет
Текст #2
Идентификатор : 4
Формат : UTF-8
Идентификатор кодека : S_TEXT/UTF8
Идентификатор кодека/Информация : UTF-8 Plain Text
Продолжительность : 1 ч. 39 м.
Битрейт : 65 бит/сек
ElementCount : 989
Размер потока : 47,9 Кбайт (0%)
Заголовок : Украинские
Язык : Ukrainian
Default : Нет
Forced : Нет
Меню
00:00:00.000 : :Chapter 01
00:05:03.219 : :Chapter 02
00:12:04.598 : :Chapter 03
00:18:18.847 : :Chapter 04
00:24:13.827 : :Chapter 05
00:27:45.246 : :Chapter 06
00:36:19.093 : :Chapter 07
00:39:55.726 : :Chapter 08
00:47:09.701 : :Chapter 09
00:51:45.227 : :Chapter 10
00:59:39.367 : :Chapter 11
01:04:17.812 : :Chapter 12
01:11:04.551 : :Chapter 13
01:17:50.874 : :Chapter 14
01:21:06.027 : :Chapter 15
01:28:54.912 : :Chapter 16
01:34:54.105 : :Chapter 17
01:40:36.947 : :Chapter 18
01:46:05.317 : :Chapter 19



Релиз от:



   Похожие торренты   Торрент   Размер 
В этой теме нет новых непрочитанных сообщений. Чёрная Молния (2009) BDRip-AVC от R.G. HD-Films | 60 fps

127 | 17

3.22 ГБ

В этой теме нет новых непрочитанных сообщений. Черная молния (2009) BDRip-AVC от HELLYWOOD | EUR Transfer

133 | 14

2.19 ГБ

В этой теме нет новых непрочитанных сообщений. Черная молния (2009) BDRemux 1080p

4 | 1

29.58 ГБ

В этой теме нет новых непрочитанных сообщений. Черная молния (2009) НDRip-AVC от RG WazZzuP

59 | 12

744.32 МБ

В этой теме нет новых непрочитанных сообщений. Черная молния / Black lightning (2010) PC | RePack

26 | 2

383.48 МБ

В этой теме нет новых непрочитанных сообщений. Черная молния / Black Lightning [01х01 из 13] (2018) WEB-DLRip | LostFilm

0 | 0

1001.48 МБ

В этой теме нет новых непрочитанных сообщений. Черная молния / Black Lightning [01x01-03 из 13] (2018) HDTVRip | GostFilm

8 | 0

1.35 ГБ




Вы не можете начинать темы
Вы не можете отвечать на сообщения
Вы не можете редактировать свои сообщения
Вы не можете удалять свои сообщения
Вы не можете добавлять вложения

Перейти:  
 Вход
ppkBB3cker v.2 © 2008-2014 @ PPK
[ Time : 0.020s | 18 Queries | GZIP : Off ]

cron