img image001 image001 image001 image001 image001 image001 image001 image001 image001 image001 image001 image001 image001 image001 image001 image001

Planets Sun Sun Sun
Статистика раздачи
Автор: Nickolas3434 | Размер: 1.08 ГБ | Добавлен: 25 окт 2017
Раздают: 8    Качают: 0
Скачать торрент
Скачать торрент
Описание торрента

СообщениеДобавлено: 25 окт 2017 


Мы "В КОНТАКТЕ"


Страна: СССР
Производство: Мосфильм
Жанр: драма, приключения
Год выпуска: 1959
Продолжительность: 01:35:54
Перевод: Не требуется
Cубтитры: нет
Оригинальная аудиодорожка: русский
Режиссер: Михаил Калатозов
В ролях:
Иннокентий Смоктуновский, Татьяна Самойлова, Василий Ливанов, Евгений Урбанский...
Об актёрах подробней
Описание:
Их было четверо – начальник поисковой партии Константин Сабинин (Иннокентий Смоктуновский), проводник Сергей (Евгений Урбанский) и два геолога – Таня (Татьяна Самойлова) и Андрей (Василий Ливанов), только что окончившие институт. В течение многих дней они упорно вели поиски алмазов. Приближалась осень. Всё тяжелее становится таёжная походная жизнь. На исходе продовольствие. Надо кончать работу и ни с чем возвращаться в Москву. И вот когда дальнейшие поиски казались бессмысленными, Таня нашла алмазы.






Источник: BDRemux 1080p
Качество видео: BDRip
Формат видео: AVI
Видео: 720x544 (4:3), 23,976 fps, XviD ~ 1417 kbps avg, 0.151 bit/pixel
Аудио: 48 kHz, Dolby Digital AC3 2.0, 192 kbps
Раздача от:
Общее
Полное имя : Neotpravlennoe.pismo.1959.BDRip_[New-team]_by_AVP_Studio.avi
Формат : AVI
Формат/Информация : Audio Video Interleave
Размер файла : 1,08 Гбайт
Продолжительность : 1 ч. 35 м.
Общий поток : 1620 Кбит/сек
Видео
Идентификатор : 0
Формат : MPEG-4 Visual
Профиль формата : Advanced Simple@L5
Параметр BVOP формата : 1
Параметр QPel формата : Нет
Параметр GMC формата : Без точки перехода
Параметр матрицы формата : Выборочная
Идентификатор кодека : XVID
Идентификатор кодека/Подсказка : XviD
Продолжительность : 1 ч. 35 м.
Битрейт : 1417 Кбит/сек
Ширина : 720 пикселей
Высота : 544 пикселя
Соотношение сторон : 4:3
Частота кадров : 23,976 (23976/1000) кадра/сек
Цветовое пространство : YUV
Субдискретизация насыщенности : 4:2:0
Битовая глубина : 8 бит
Тип развёртки : Прогрессивная
Метод сжатия : С потерями
Бит/(Пиксели*Кадры) : 0.151
Размер потока : 972 Мбайт (87%)
Библиотека кодирования : XviD 73
Аудио
Идентификатор : 1
Формат : AC-3
Формат/Информация : Audio Coding 3
Параметр Endianness формата : Big
Идентификатор кодека : 2000
Продолжительность : 1 ч. 35 м.
Вид битрейта : Постоянный
Битрейт : 192 Кбит/сек
Каналы : 2 канала
Расположение каналов : Front: L R
Частота : 48,0 КГц
Частота кадров : 31,250 кадров/сек (1536 SPF)
Битовая глубина : 16 бит
Метод сжатия : С потерями
Размер потока : 132 Мбайт (12%)
Выравнивание : Соединение по промежуткам
Продолжительность промежутка : 32 мс. (0,77 видеокадр)





   Похожие торренты   Торрент   Размер 
В этой теме нет новых непрочитанных сообщений. Неотправленное письмо (1959) BDRip от New-Team

6 | 0

745.55 МБ

В этой теме нет новых непрочитанных сообщений. Неотправленное письмо (1959) BDRip-AVC от New-Team

10 | 3

2.18 ГБ

В этой теме нет новых непрочитанных сообщений. Неотправленное письмо (1959) BDRip 720p от New-Team

2 | 0

2.9 ГБ

В этой теме нет новых непрочитанных сообщений. Баллада о солдате (1959) BDRip от New-Team

7 | 0

1.46 ГБ

В этой теме нет новых непрочитанных сообщений. Баллада о солдате (1959) BDRip-AVC от New-Team

2 | 0

2.18 ГБ

В этой теме нет новых непрочитанных сообщений. Баллада о солдате (1959) BDRip от New-Team

5 | 0

745.13 МБ

В этой теме нет новых непрочитанных сообщений. Баллада о солдате (1959) BDRip 720p от New-Team

4 | 0

2.91 ГБ




Вы не можете начинать темы
Вы не можете отвечать на сообщения
Вы не можете редактировать свои сообщения
Вы не можете удалять свои сообщения
Вы не можете добавлять вложения

Перейти:  
 Вход
ppkBB3cker v.2 © 2008-2014 @ PPK
[ Time : 0.125s | 16 Queries | GZIP : Off ]

cron